RIGHT NOW
GOOD4NOTHING

BASIC

Level: 2
BPM: 184
Notes: 142

全程BPM在184附近飄忽不定
1
口口口口 |----|
口口口口 |----|
口口口口 |----|
口口口口 |----|
2
口口口口 |----|
口口口口 |----|
口口口口 |----|
口口口口 |----|
3
口口口口 |----|
口①①口 |①---|
口口口口 |----|
口口口口 |----|
4
口口口口 |----|
口口口口 |①---|
口①①口 |----|
口口口口 |----|
5
口口口口 |----|
①口口口 |①---|
口口口口 |----|
口口口口 |----|
6
口口口口 |①---|
口口口① |----|
口②②口 |②---|
口口口口 |----|
7
口口口口 |----|
口①①口 |①---|
口口口口 |----|
口口口口 |----|
8
口口口口 |----|
口口口口 |①---|
口①①口 |----|
口口口口 |----|
9
口口口口 |----|
①口口口 |①---|
口口口口 |----|
口口口口 |----|
10
口口口口 |①---|
口口口① |----|
口②②口 |②---|
口口口口 |----|
11
①口口口 |①---|
口口口口 |----|
口口口口 |----|
口口口口 |----|
12
口①口口 |①---|
口口口口 |----|
口口口口 |----|
口口口口 |----|
13
口口①口 |①---|
口口口口 |----|
口口口口 |----|
口口口口 |----|
14
口口口① |①---|
口口口口 |----|
口口口口 |----|
口口口口 |----|
15
口口口口 |①---|
①口口口 |----|
口口口口 |----|
口口口口 |----|
16
口口口口 |①---|
口①口口 |----|
口口口口 |----|
口口口口 |----|
17
口口口口 |①---|
口口①口 |----|
口口口口 |----|
口口口口 |----|
18
口口口口 |①---|
口口口① |----|
口口口口 |----|
口口口口 |----|
19
口口口口 |①---|
口口口口 |----|
口①①口 |----|
口口口口 |----|
20
口口口口 |①---|
①口口① |----|
口口口口 |----|
口口口口 |----|
21
口口口口 |①---|
口口口口 |----|
口①①口 |----|
口口口口 |----|
22
口口口口 |①---|
①口口① |----|
口口口口 |----|
口口口口 |----|
23
口口口口 |①---|
口口口口 |----|
口①①口 |----|
口口口口 |----|
24
口口口口 |①---|
①口口① |----|
口口口口 |----|
口口口口 |----|
25
口口口口 |①---|
口口口口 |----|
口①①口 |----|
口口口口 |----|
26
口口口口 |①---|
①口口① |----|
口口口口 |----|
口口口口 |----|
27
口口口口 |①---|
口口口口 |----|
口①①口 |----|
口口口口 |----|
28
口口口口 |①---|
①口口① |----|
口口口口 |----|
口口口口 |----|
29
口口口口 |----|
口①口口 |①---|
口口口口 |----|
口口口口 |----|
30
口口口口 |①---|
口口①口 |----|
口口口口 |----|
口口口口 |----|
31
口口口口 |①---|
口口口口 |----|
口①①口 |----|
口口口口 |----|
32
口口口口 |----|
口口口口 |----|
口口口口 |----|
口口口口 |----|
33
口口口口 |----|
口①口口 |①---|
口口口口 |----|
口口口口 |----|
34
口口口口 |①---|
口口①口 |----|
口口口口 |----|
口口口口 |----|
35
口口口口 |①---|
口口口口 |----|
②①①② |②---|
口口口口 |----|
36
口口口口 |----|
口口口口 |----|
口口口口 |----|
口口口口 |----|
37
口口口口 |----|
口①口口 |①---|
口口口口 |----|
口口口口 |----|
38
口口口口 |①---|
口口①口 |----|
口口口口 |----|
口口口口 |----|
39
口口口口 |①---|
口口口口 |----|
口①①口 |----|
口口口口 |----|
40
口口口口 |----|
口口口口 |----|
口口口口 |----|
口口口口 |----|
41
口口口口 |----|
口①口口 |①---|
口口口口 |----|
口口口口 |----|
42
口口口口 |①---|
口口①口 |----|
口口口口 |----|
口口口口 |----|
43
口口口口 |①---|
口口口口 |----|
②①①② |②---|
口口口口 |----|
44
口口口口 |----|
口口口口 |----|
口口口口 |----|
口口口口 |----|
45
口①口口 |①---|
口口口口 |----|
口口口口 |----|
口口口口 |----|
46
口口口口 |----|
口口口口 |----|
口口口口 |----|
口口口口 |----|
47
口口①口 |①---|
口口口口 |----|
口口口口 |----|
口口口口 |----|
48
口口口口 |----|
口口口口 |----|
口口口口 |----|
口口口口 |----|
49
①口口口 |①---|
口口口口 |----|
口口口口 |----|
口口口口 |----|
50
口口口口 |----|
口口口口 |----|
口口口口 |----|
口口口口 |----|
51
口口口① |①---|
口口口口 |----|
口口口口 |----|
口口口口 |----|
52
口口口口 |----|
口口口口 |----|
口口口口 |----|
口口口口 |----|
53
口口口口 |----|
①②③口 |①---|
口口口口 |②---|
口口口口 |③---|
54
口口口口 |①---|
口口口① |②---|
口④③② |③---|
口口口口 |④---|
55
口口口口 |----|
口③②① |①---|
口口口口 |②---|
口口口口 |③---|
56
口口口口 |①---|
①口口口 |②---|
②③④口 |③---|
口口口口 |④---|
57
口口口口 |----|
①②③口 |①---|
口口口口 |②---|
口口口口 |③---|
58
口口口口 |①---|
口口口① |②---|
口④③② |③---|
口口口口 |④---|
59
口口口口 |----|
口③②① |①---|
口口口口 |②---|
口口口口 |③---|
60
口口口口 |①---|
①口口口 |②---|
②③④口 |③---|
口口口口 |④---|
61
③口口口 |----|
②①①口 |①---|
口口口口 |②---|
口口口口 |③---|
62
口口口口 |----|
口口口③ |①---|
口①①② |②---|
口口口口 |③---|
63
口口口口 |----|
①②③口 |①---|
口口口口 |②---|
口口口口 |③---|
64
口④④口 |①---|
口口口① |②---|
口③③口 |③---|
口口口② |④---|
65
③口口口 |----|
②①①口 |①---|
口口口口 |②---|
口口口口 |③---|
66
口口口口 |----|
口口口③ |①---|
口①①② |②---|
口口口口 |③---|
67
口口口口 |----|
①②③口 |①---|
口口口口 |②---|
口口口口 |③---|
68
口④④口 |①---|
口口口① |②---|
口③③口 |③---|
口口口② |④---|
69
口口口口 |①---|
①②口口 |----|
口口口口 |②---|
口口口口 |----|
70
口口口口 |①---|
口口①口 |----|
口口口口 |----|
口口口口 |----|
71
口口口口 |①---|
口口②① |----|
口口口口 |②---|
口口口口 |----|
72
口口口口 |①---|
口①口口 |----|
口口口口 |----|
口口口口 |----|
73
口口口口 |①---|
①②口口 |----|
口口口口 |②---|
口口口口 |----|
74
口口口口 |①---|
口口①口 |----|
口口口口 |----|
口口口口 |----|
75
口口口口 |①---|
口口②① |----|
口口口口 |②---|
口口口口 |----|
76
口口口口 |①---|
口①口口 |----|
口口口口 |----|
口口口口 |----|
最終更新:2019年08月22日 03:31