Switch On!
土屋アンナ

BASIC

Level: 3
BPM: 190
Notes: 160

1
口口口口 |----|
口口口口 |----|
口口口口 |----|
口口口口 |----|
2
口口口口 |①---|
口口口口 |----|
口①①口 |----|
口口口口 |----|
3
①口口① |----|
②口口② |----|
口口口口 |①---|
口口口口 |②---|
4
口口口口 |①---|
口口口口 |----|
口①①口 |----|
口口口口 |----|
5
①口口① |----|
②口口② |----|
口口口口 |①---|
口口口口 |②---|
6
口口口口 |①---|
口口口口 |----|
口①①口 |----|
口口口口 |----|
7
①口口① |----|
②口口② |----|
口口口口 |①---|
口口口口 |②---|
8
口口口口 |①---|
口口口口 |----|
口①①口 |----|
口口口口 |----|
9
②口口② |----|
①口口① |----|
口口口口 |①---|
口口口口 |②---|
10
口口口口 |①---|
口口口口 |----|
口①口口 |----|
口口口口 |----|
11
口口口口 |①---|
口口②口 |----|
口口①口 |②---|
口口口口 |----|
12
口口口口 |①---|
①②口口 |----|
口口口口 |②---|
口口口口 |----|
13
口口口口 |①---|
口口①② |----|
口口口口 |②---|
口口口口 |----|
14
口口口口 |①---|
口口口口 |----|
口①①口 |----|
口口口口 |----|
15
口口口口 |①---|
①口口① |----|
口口口口 |----|
口口口口 |----|
16
口①①口 |①---|
口②②口 |----|
口口口口 |②---|
口口口口 |----|
17
口口口口 |①---|
口口口口 |----|
口①①口 |②---|
口②②口 |----|
18
口口口口 |①---|
口口口口 |----|
口①口口 |----|
口口口口 |----|
19
口口口口 |①---|
口口②口 |----|
口口①口 |②---|
口口口口 |----|
20
口口口口 |①---|
①②口口 |----|
口口口口 |②---|
口口口口 |----|
21
口口口口 |①---|
口口①② |----|
口口口口 |②---|
口口口口 |----|
22
口口口口 |①---|
口①①口 |----|
口口口口 |----|
口口口口 |----|
23
口口口口 |①---|
口口口口 |----|
②①①口 |②---|
口口口口 |----|
24
口口口口 |①---|
口口口口 |----|
口口口口 |②---|
口②①口 |----|
25
口口口口 |①---|
口口口口 |----|
口口口① |----|
口口口口 |----|
26
①口口① |①---|
口口口口 |----|
口口口口 |----|
口口口口 |----|
27
口口口口 |----|
口口口口 |----|
口口口口 |----|
口口口口 |----|
28
口口口口 |①---|
口①口口 |----|
口口口口 |----|
口口口口 |----|
29
口口口口 |①---|
口口①口 |----|
口口口口 |----|
口口口口 |----|
30
口口口口 |①---|
①口口② |----|
口口口口 |②---|
口口口口 |----|
31
口口口口 |①---|
口①①口 |----|
口口口口 |②---|
口②②口 |----|
32
口口口口 |①---|
①口口② |----|
口口口口 |②---|
口口口口 |----|
33
口①①口 |①---|
口①①口 |----|
口口口口 |----|
口口口口 |----|
34
口口口口 |①---|
①②口口 |----|
口口口口 |②---|
口口口口 |----|
35
口口口口 |①---|
口口②① |----|
口口口口 |②---|
口口口口 |----|
36
口口口口 |①---|
口口口口 |----|
口口②口 |②---|
口①口口 |----|
37
口口口口 |①---|
口①③口 |----|
口②口口 |②---|
口口口口 |③---|
38
口①口口 |①---|
口口口口 |----|
口口口口 |----|
口口口口 |----|
39
口口口口 |①---|
②口口② |----|
口①①口 |②---|
口口口口 |----|
40
口口口口 |①---|
口口口口 |----|
口①②口 |②---|
口口口口 |----|
41
口口口口 |①---|
①口口② |②---|
口口口口 |----|
口口口口 |----|
42
口口口口 |①---|
①②口口 |----|
口口口口 |②---|
口口口口 |----|
43
口口口口 |①---|
口口②① |----|
口口口口 |②---|
口口口口 |----|
44
口口口口 |①---|
口口口口 |----|
口口②口 |②---|
口①口口 |----|
45
口口口口 |①---|
口①③口 |----|
口②口口 |②---|
口口口口 |③---|
46
口①口口 |①---|
口口口口 |----|
口口口口 |----|
口口口口 |----|
47
口口口口 |①---|
②口口② |----|
口①①口 |②---|
口口口口 |----|
48
口口口口 |①---|
口口口口 |----|
口①②口 |②---|
口口口口 |----|
49
口口口口 |①---|
①口口② |②---|
口口口口 |----|
口口口口 |----|
50
①口口口 |①---|
②口口口 |----|
口口口口 |②---|
口口口口 |----|
51
口口口口 |①---|
口③②口 |----|
①口口口 |②---|
口口口口 |③---|
52
口口口① |①---|
口口口② |----|
口口口口 |②---|
口口口口 |----|
53
口口口口 |①---|
口口口口 |----|
口口口① |----|
口口口口 |----|
54
口口口口 |①---|
①口口口 |----|
②口口口 |②---|
口口口口 |----|
55
口口口口 |①---|
口口口口 |----|
口③②口 |②---|
①口口口 |③---|
56
口口口口 |①---|
口口口① |----|
口口口② |②---|
口口口口 |----|
57
口口口口 |①---|
口口口口 |----|
口②②口 |②---|
口口口① |----|
58
①口口① |①---|
口口口口 |----|
口口口口 |----|
口口口口 |----|
59
①口口① |----|
②口口② |----|
口口口口 |①---|
口口口口 |②---|
60
口口口口 |①---|
口口口口 |----|
口①①口 |----|
口口口口 |----|
61
①口口① |----|
②口口② |----|
口口口口 |①---|
口口口口 |②---|
62
口口口口 |①---|
口口口口 |----|
口①①口 |----|
口口口口 |----|
63
①口口① |----|
②口口② |----|
口口口口 |①---|
口口口口 |②---|
64
口口口口 |①---|
口口口口 |----|
口①①口 |----|
口口口口 |----|
65
口口口口 |----|
①①①① |----|
②②②② |①---|
口口口口 |②---|
66
①①①① |①---|
口口口口 |----|
口口口口 |----|
口口口口 |----|
最終更新:2019年08月21日 20:22