千本桜
黒うさP

ADVANCED

Level: 7
BPM: 154
Notes: 449

1
口口口口 |----|
口口口口 |----|
口口口口 |----|
口口口口 |----|
2
口口口口 |①--②|
①②⑤④ |--③-|
口⑥③口 |④--⑤|
口口口口 |--⑥-|
3
⑤口口⑤ |①--②|
①②口口 |--③-|
口口③口 |④---|
④口口④ |⑤---|
4
口口口口 |①--②|
①②⑤④ |--③-|
口⑥③口 |④--⑤|
口口口口 |--⑥-|
5
口口④④ |①---|
③③口口 |②---|
口口②② |③---|
①①口口 |④---|
6
口口口口 |①-②-|
口④⑧口 |③-④-|
口③⑦口 |⑤-⑥-|
①⑥②⑤ |⑦-⑧-|
7
①口②口 |①-②-|
⑧③⑦口 |③-④-|
⑥④⑤口 |⑤-⑥-|
口口口口 |⑦-⑧-|
8
口口口口 |①-②-|
口④⑧口 |③-④-|
口③⑦口 |⑤-⑥-|
①⑥②⑤ |⑦-⑧-|
9
①②④③ |①-②-|
⑤⑥⑧⑦ |③-④-|
口口口口 |⑤-⑥-|
口口口口 |⑦-⑧-|
10
口口口口 |①-②-|
口④⑧口 |③-④-|
口③⑦口 |⑤-⑥-|
①⑥②⑤ |⑦-⑧-|
11
①口②口 |①-②-|
⑧③⑦口 |③-④-|
⑥④⑤口 |⑤-⑥-|
口口口口 |⑦-⑧-|
12
口④④口 |①---|
口③③口 |②---|
口②②口 |③---|
口①①口 |④---|
13
口口口口 |①-②-|
口⑤⑤口 |③-④-|
④口口① |⑤---|
口③②口 |----|
14
口口口口 |①-②-|
口④⑧口 |③-④-|
口③⑦口 |⑤-⑥-|
①⑥②⑤ |⑦-⑧-|
15
①口②口 |①-②-|
⑧③⑦口 |③-④-|
⑥④⑤口 |⑤-⑥-|
口口口口 |⑦-⑧-|
16
口口口口 |①-②-|
口④⑧口 |③-④-|
口③⑦口 |⑤-⑥-|
①⑥②⑤ |⑦-⑧-|
17
①②④③ |①-②-|
⑤⑥⑧⑦ |③-④-|
口口口口 |⑤-⑥-|
口口口口 |⑦-⑧-|
18
口口口口 |①-②-|
口④⑧口 |③-④-|
口③⑦口 |⑤-⑥-|
①⑥②⑤ |⑦-⑧-|
19
①口②口 |①-②-|
⑧③⑦口 |③-④-|
⑥④⑤口 |⑤-⑥-|
口口口口 |⑦-⑧-|
20
②口口② |①---|
口④④口 |②---|
③口口③ |③---|
口①①口 |④---|
21
②口口① |①--②|
口口④口 |--③-|
口③口口 |④---|
⑤⑤⑤⑤ |⑤---|
22
②口口口 |①---|
①⑤⑥口 |②---|
口③④口 |③-④-|
口口口口 |⑤-⑥-|
23
口口口② |①---|
口③④① |②---|
口⑤⑥口 |③-④-|
口口口口 |⑤-⑥-|
24
②口口口 |①---|
①⑤⑥口 |②---|
口③④口 |③-④-|
口口口口 |⑤-⑥-|
25
①③③① |①---|
口口口口 |②---|
口口口口 |③---|
④②②④ |④---|
26
②口口口 |①---|
①⑤⑥口 |②---|
口③④口 |③-④-|
口口口口 |⑤-⑥-|
27
口口口② |①---|
口③④① |②---|
口⑤⑥口 |③-④-|
口口口口 |⑤-⑥-|
28
②口口口 |①---|
①⑤⑥口 |②---|
口③④口 |③-④-|
口口口口 |⑤-⑥-|
29
①③③① |①---|
口口口口 |②---|
口口口口 |③---|
④②②④ |④---|
30
口③④口 |①---|
③口口④ |②---|
②口口① |③---|
口②①口 |④---|
31
口③口口 |①---|
口口②口 |②---|
口①口口 |③---|
口口口口 |----|
32
口口口口 |①---|
口④②口 |②---|
口口口口 |③---|
口①③口 |④---|
33
口口口口 |①-②-|
①口口④ |③-④-|
口⑤⑤口 |⑤---|
③口口② |----|
34
口口口口 |①---|
①③②④ |②---|
口口口口 |③---|
②④①③ |④---|
35
口口口口 |①---|
口口①口 |②---|
口②口口 |③---|
④口③⑤ |④-⑤-|
36
⑤口口⑤ |①-②-|
口口口口 |--③-|
①④④② |④---|
口③③口 |⑤---|
37
口口口口 |①---|
口口口口 |----|
②口口③ |----|
①口口① |②-③-|
38
④口口③ |①--②|
口④③口 |--③-|
⑤②②口 |④---|
口①①口 |--⑤-|
39
口口口口 |①-②-|
口③②口 |③-④-|
口①④⑤ |⑤---|
⑥口口⑦ |⑥-⑦-|
40
⑤④口④ |①--②|
口③口③ |--③-|
②口②口 |④---|
口①口口 |--⑤-|
41
口口①口 |①-②-|
②口③口 |③-④-|
④口⑤口 |⑤---|
⑥口口⑦ |⑥-⑦-|
42
④口口③ |①--②|
口④③口 |--③-|
⑤②②口 |④---|
口①①口 |--⑤-|
43
口口口口 |①-②-|
口③②口 |③-④-|
口①④⑤ |⑤---|
⑥口口⑦ |⑥-⑦-|
44
口①②口 |①---|
①③③② |②---|
口④④口 |③---|
口口口口 |④---|
45
口④②口 |①-②-|
①口口③ |③-④-|
⑥⑤⑤⑦ |⑤---|
口口口口 |⑥-⑦-|
46
④口口③ |①--②|
口④③口 |--③-|
⑤②②口 |④---|
口①①口 |--⑤-|
47
口口口口 |①-②-|
口③②口 |③-④-|
口①④⑤ |⑤---|
⑥口口⑦ |⑥-⑦-|
48
⑤④口④ |①--②|
口③口③ |--③-|
②口②口 |④---|
口①口口 |--⑤-|
49
口口①口 |①-②-|
②口③口 |③-④-|
④口⑤口 |⑤---|
⑥口口⑦ |⑥-⑦-|
50
④口口③ |①--②|
口④③口 |--③-|
⑤②②口 |④---|
口①①口 |--⑤-|
51
口口口口 |①-②-|
口③②口 |③-④-|
口①④⑤ |⑤---|
⑥口口⑦ |⑥-⑦-|
52
口①①口 |①---|
口②②口 |②---|
口③③口 |③---|
口④④口 |④---|
53
口⑤⑤口 |①-②-|
口④④口 |③-④-|
口③③口 |⑤---|
①口口② |----|
54
口口口口 |①-②-|
口④⑧口 |③-④-|
口③⑦口 |⑤-⑥-|
①⑥②⑤ |⑦-⑧-|
55
①口②口 |①-②-|
⑧③⑦口 |③-④-|
⑥④⑤口 |⑤-⑥-|
口口口口 |⑦-⑧-|
56
口口口口 |①-②-|
口④⑧口 |③-④-|
口③⑦口 |⑤-⑥-|
①⑥②⑤ |⑦-⑧-|
57
①②④③ |①-②-|
⑤⑥⑧⑦ |③-④-|
口口口口 |⑤-⑥-|
口口口口 |⑦-⑧-|
58
口口口口 |①-②-|
口④⑧口 |③-④-|
口③⑦口 |⑤-⑥-|
①⑥②⑤ |⑦-⑧-|
59
①口②口 |①-②-|
⑧③⑦口 |③-④-|
⑥④⑤口 |⑤-⑥-|
口口口口 |⑦-⑧-|
60
②口口③ |①-②-|
口④口口 |③-④-|
口口口口
口口①口

口口口口
口口口口
⑤⑥⑥⑤ |⑤-⑥-|
⑧⑦⑦⑧ |⑦-⑧-|
61
②口口① |①--②|
②④④① |--③-|
口③③口 |④---|
⑤⑤⑤⑤ |⑤---|
最終更新:2019年08月22日 02:03