千本桜
黒うさP

EXTREME

Level: 9
BPM: 154
Notes: 678

1
口口口口 |----|
口口口口 |----|
口口口口 |----|
口口口口 |----|
2
⑤口口④ |①--②|
①⑥⑥② |--③-|
④③③⑤ |④--⑤|
口②①口 |--⑥-|
3
⑤口口⑤ |①--②|
①口口② |--③-|
口③③口 |④---|
④②①④ |⑤---|
4
⑤口口④ |①--②|
②⑥⑥① |--③-|
④③③⑤ |④--⑤|
口①②口 |--⑥-|
5
④②②④ |①---|
④口口④ |②---|
口③③口 |③---|
③①①③ |④---|
6
口口②口 |①-②-|
口①口口 |③④⑤⑥|
口③④口
口⑤⑥口

口⑨⑩口
口⑪⑫⑧
⑦口口口 |⑦-⑧-|
口口口口 |⑨⑩⑪⑫|
7
口口口口 |①-②-|
口口口口 |③④⑤⑥|
口③④口
①⑤⑥②

⑦口口⑧
⑨口口⑩
⑦口口⑧ |⑦-⑧-|
⑨口口⑩ |⑨-⑩-|
8
口口②口 |①-②-|
口①口口 |③④⑤⑥|
口③④口
口⑤⑥口

口⑨⑩口
口⑪⑫⑧
⑦口口口 |⑦-⑧-|
口口口口 |⑨⑩⑪⑫|
9
口口口口 |①-②-|
口口口④ |③-④-|
口③口口
①口口②

口⑥口口
⑤口⑦口
口口口⑧ |⑤⑥⑦⑧|
⑩口⑨口 |⑨-⑩-|
10
口口②口 |①-②-|
口①口口 |③④⑤⑥|
口③④口
口⑤⑥口

口⑨⑩口
口⑪⑫⑧
⑦口口口 |⑦-⑧-|
口口口口 |⑨⑩⑪⑫|
11
口口口口 |①-②-|
口口口口 |③④⑤⑥|
口③④口
①⑤⑥②

⑦口口⑧
⑨口口⑩
⑦口口⑧ |⑦-⑧-|
⑨口口⑩ |⑨-⑩-|
12
口②⑤口 |①-②③|
口⑥③口 |④-⑤⑥|
④①口口
口口口口

口⑬口口
口口⑫口
口⑪⑨⑦ |⑦-⑧⑨|
口⑧⑩口 |⑩⑪⑫⑬|
13
①口口① |①-②-|
②⑦口② |③-④-|
④口⑥④ |⑤---|
③⑤⑤③ |⑥-⑦-|
14
口③⑨口 |①-②-|
⑧⑩④口 |③④⑤⑥|
口⑤⑪⑦ |⑦-⑧-|
①⑫⑥② |⑨⑩⑪⑫|
15
口③⑦⑦ |①-②-|
⑧⑧④② |③④⑤⑥|
①⑤⑨⑨ |⑦-⑧-|
⑩⑩⑥口 |⑨-⑩-|
16
口③⑨口 |①-②-|
⑧⑩④② |③④⑤⑥|
①⑤⑪⑦ |⑦-⑧-|
口⑫⑥口 |⑨⑩⑪⑫|
17
④口⑤口 |①-②-|
⑩⑥②⑦ |③-④-|
①口⑧口 |⑤⑥⑦⑧|
口⑨③口 |⑨-⑩-|
18
口③⑨口 |①-②-|
⑧⑩④口 |③④⑤⑥|
口⑤⑪⑦ |⑦-⑧-|
①⑫⑥② |⑨⑩⑪⑫|
19
口③⑦⑦ |①-②-|
⑧⑧④② |③④⑤⑥|
①⑤⑨⑨ |⑦-⑧-|
⑩⑩⑥口 |⑨-⑩-|
20
①③⑦⑤ |①②③④|
口⑪②④ |⑤⑥⑦⑧|
⑧⑥口⑫ |⑨-⑩-|
口⑩口⑨ |⑪-⑫-|
21
口①②口 |①--②|
①④④② |--③-|
口③③口 |④---|
⑤⑤⑤⑤ |⑤---|
22
口口⑥口 |①---|
①口④② |②---|
①⑤口② |③-④-|
口③口口 |⑤-⑥-|
23
口③口口 |①---|
②⑤口① |②---|
②口④① |③-④-|
口口⑥口 |⑤-⑥-|
24
口口①① |①---|
口⑥⑤口 |②---|
口④③口 |③-④-|
②②口口 |⑤-⑥-|
25
口③③口 |①---|
①口口② |②---|
口④④口 |③---|
②口口① |④---|
26
口口⑦口 |①--②|
①口⑤③ |③---|
①⑥口③ |④-⑤-|
口④②口 |⑥-⑦-|
27
口⑤口口 |①--②|
③⑦④① |③-④-|
③口⑥① |⑤-⑥-|
口②⑧口 |⑦-⑧-|
28
口口①① |①---|
口⑥⑤口 |②---|
口④③口 |③-④-|
②②口口 |⑤-⑥-|
29
①口④④ |①---|
①④④② |②---|
③④②口 |③---|
③③口② |④---|
30
口④③口 |①---|
①口口② |②---|
②口口① |③---|
口③④口 |④---|
31
口口口口 |①-②③|
口②③口 |④-⑤-|
口④口⑤
口口口①

口口口口
口口口口
口口口口 |⑥---|
⑥⑥口⑦ |⑦---|
32
口④②口 |①---|
④口口② |②---|
口①③口 |③---|
口口口口 |④---|
33
口口口① |①-②-|
口口③口 |③-④-|
⑥②⑤⑤ |⑤---|
④口口口 |⑥---|
34
①③④② |①---|
口口口口 |②---|
口口口口 |③---|
②④③① |④---|
35
口口口口 |①-②③|
口③口⑤ |④-⑤-|
①④②口
口口口口

⑥口口口
口口口口
⑦口口⑧ |⑥---|
口口口口 |⑦-⑧-|
36
⑤⑤⑤⑤ |①-②-|
④②②③ |--③-|
口④③口 |④---|
口①①口 |⑤---|
37
口口口口 |①---|
口②②口 |②-③-|
口③③口
①①①①

口口口口
口口口口
口口口口 |----|
④口⑤口 |④-⑤-|
38
口③口口 |①--②|
③口③② |--③-|
口③口②
口①口口

④口④口
口④口口
④口④⑤ |④---|
口口⑤口 |--⑤-|
39
口③口② |①-②-|
③口②④ |③-④-|
口口④口
①①口口

口口口口
口⑤口口
⑤口口口 |⑤---|
口⑦口⑥ |⑥-⑦-|
40
口③口口 |①--②|
②口③口 |--③-|
口②口口
口口①口

⑤口口口
口口口口
口口口④ |④---|
口口⑤④ |--⑤-|
41
口⑤口口 |①-②-|
①④②③ |③-④-|
②③①④ |⑤---|
⑦口⑥⑤ |⑥-⑦-|
42
口口③口 |①--②|
②③口③ |--③-|
②口③口
口①口口

口④口④
口口④口
⑤④口④ |④---|
口⑤口口 |--⑤-|
43
②口③口 |①-②-|
④②口③ |③-④-|
口④口口
口口①①

口口口口
口口⑤口
口口口⑤ |⑤---|
⑥口⑦口 |⑥-⑦-|
44
口①①口 |①---|
③口口② |②---|
③口口② |③---|
口④④口 |④---|
45
口②②口 |①-②-|
口④④① |③-④-|
③⑤⑤口 |⑤---|
⑥口⑦口 |⑥-⑦-|
46
口③口口 |①--②|
③口③② |--③-|
口③口②
口①口口

④口④口
口④口口
④口④⑤ |④---|
口口⑤口 |--⑤-|
47
口③口② |①-②-|
③口②④ |③-④-|
口口④口
①①口口

口口口口
口⑤口口
⑤口口口 |⑤---|
口⑦口⑥ |⑥-⑦-|
48
口③口口 |①--②|
②口③口 |--③-|
口②口口
口口①口

⑤口口口
口口口口
口口口④ |④---|
口口⑤④ |--⑤-|
49
口⑤口口 |①-②-|
①④②③ |③-④-|
②③①④ |⑤---|
⑦口⑥⑤ |⑥-⑦-|
50
口口③口 |①--②|
②③口③ |--③-|
②口③口
口①口口

口④口④
口口④口
⑤④口④ |④---|
口⑤口口 |--⑤-|
51
②口③口 |①-②-|
④②口③ |③-④-|
口④口口
口口①①

口口口口
口口⑤口
口口口⑤ |⑤---|
⑥口⑦口 |⑥-⑦-|
52
口口①口 |①---|
②②③① |②---|
口口③口 |③---|
④口口口 |④---|
53
⑤⑤⑤⑤ |①-②-|
口④④口 |③-④-|
①③③① |⑤---|
口②②口 |----|
54
口③口口 |①-②-|
口口④口 |③④⑤⑥|
口⑤口口
①①⑥②

口口⑨⑦
⑧⑩口口
口口⑪⑦ |⑦-⑧-|
口⑫口口 |⑨⑩⑪⑫|
55
①③⑦⑦ |①-②-|
⑧⑧④② |③④⑤⑥|
①⑤⑨⑨ |⑦-⑧-|
⑩⑩⑥口 |⑨-⑩-|
56
①③⑨⑦ |①-②-|
⑧⑩④② |③④⑤⑥|
①⑤⑪⑦ |⑦-⑧-|
口⑫⑥口 |⑨⑩⑪⑫|
57
④口⑤口 |①-②-|
⑩⑥②⑦ |③-④-|
①口⑧口 |⑤⑥⑦⑧|
①⑨③口 |⑨-⑩-|
58
口③⑨⑦ |①-②-|
⑧⑩④口 |③④⑤⑥|
①⑤⑪⑦ |⑦-⑧-|
①⑫⑥② |⑨⑩⑪⑫|
59
①③⑦⑦ |①-②-|
⑧⑧④② |③④⑤⑥|
①⑤⑨⑨ |⑦-⑧-|
⑩⑩⑥口 |⑨-⑩-|
60
①⑤口⑥ |①②③④|
口口口② |⑤⑥⑦⑧|
⑦③口口
口口⑧④

口口⑨口
⑩⑩⑨口
口⑫⑪⑪ |⑨-⑩-|
口⑫口口 |⑪-⑫-|
61
①④④② |①--②|
口③③口 |--③-|
⑤⑤⑤⑤ |④---|
①⑤⑤② |⑤---|
最終更新:2019年08月22日 02:04