つけまつける
きゃりーぱみゅぱみゅ

ADVANCED

Level: 5
BPM: 145
Notes: 351

1
口口口口 |----|
口口口口 |----|
口口口口 |----|
口口口口 |----|
2
口口口口 |----|
口口口口 |----|
口口口口 |----|
口口口口 |----|
3
口口口口 |----|
口口口口 |----|
口口口口 |----|
口口口口 |----|
4
④口口口 |①---|
③口口⑥ |②-③-|
口②⑤口 |④---|
口①①口 |⑤-⑥-|
5
口③③① |①---|
口②②口 |②---|
口口口口 |③---|
口口口口 |----|
6
①③③① |①-②-|
②④④② |③-④-|
口口口口
口口口口

口口口口
⑦口口⑦
口⑥⑥口 |⑤---|
口⑤⑤口 |⑥-⑦-|
7
①③③① |①---|
口②②口 |②---|
口口口口 |③---|
口口口口 |----|
8
④口口口 |①---|
③口口⑥ |②-③-|
口②⑤口 |④---|
口①①口 |⑤-⑥-|
9
口③③① |①---|
口②②口 |②---|
口口口口 |③---|
口口口口 |----|
10
口口口口 |①-②-|
⑦①③⑦ |③-④-|
②⑥⑥④ |⑤---|
口⑤⑤口 |⑥-⑦-|
11
①③③① |①---|
口②②口 |②---|
口口口口 |③---|
口口口口 |----|
12
④口口口 |①---|
③口口⑥ |②-③-|
口②⑤口 |④---|
口①①口 |⑤-⑥-|
13
口③⑤① |①-②-|
口②④口 |③-④-|
口口口口 |⑤---|
口口口口 |----|
14
①③③① |①-②-|
②④④② |③-④-|
口口口口
口口口口

口口口口
⑦口口⑦
口⑥⑥口 |⑤---|
口⑤⑤口 |⑥-⑦-|
15
①③③① |①---|
口②②口 |②---|
口口口口 |③---|
口口口口 |----|
16
④口口口 |①---|
③口口⑥ |②-③-|
口②⑤口 |④---|
口①①口 |⑤-⑥-|
17
口③⑤① |①-②-|
口②④口 |③-④-|
口口口口 |⑤---|
口口口口 |----|
18
口口口口 |①-②-|
⑦①③⑦ |③-④-|
②⑥⑥④ |⑤---|
口⑤⑤口 |⑥-⑦-|
19
①③⑤① |①-②-|
口②④口 |③-④-|
口口口口 |⑤---|
口口口口 |----|
20
口口口口 |①---|
①②④③ |②---|
口口口口 |③---|
口口口口 |④---|
21
口口口口 |①---|
口口口口 |②---|
①②③口 |③---|
口①②③ |----|
22
④②②④ |①---|
③①①③ |②---|
④②②④ |③---|
口口口口 |④---|
23
口口口口 |①-②-|
口①②口 |③-④-|
口③④口 |⑤---|
口⑤口口 |----|
24
口口口口 |①---|
①②④③ |②---|
口口口口 |③---|
口口口口 |④---|
25
口口口口 |①---|
口口口口 |②---|
口①②③ |③---|
①②③口 |----|
26
口口④口 |①---|
口③口口 |②---|
口口②口 |③---|
口①口口 |④---|
27
③口口③ |①---|
②口口② |②---|
①口口① |③---|
口口口口 |----|
28
口口口口 |①---|
③①②④ |②---|
口口口口 |③---|
口口口口 |④---|
29
口口口③ |①-②-|
口①④口 |③-④-|
②⑤口口 |⑤---|
口口口口 |----|
30
口口口口 |①---|
口口口口 |②---|
①②④③ |③---|
口口口口 |④---|
31
③口口口 |①-②-|
口④①口 |③-④-|
口口⑤② |⑤---|
口口口口 |----|
32
④口口④ |①---|
③口口③ |②---|
②口口② |③---|
口①①口 |④---|
33
口②①口 |①-②-|
口④③口 |③-④-|
口口⑤口 |⑤---|
口口口口 |----|
34
④②②④ |①---|
口①①口 |②---|
③②②③ |③---|
口口口口 |④---|
35
口口口口 |①-②-|
口口⑤② |③-④-|
口④①口 |⑤---|
③口口口 |----|
36
口②口口 |----|
①口③口 |①---|
口②口口 |②---|
口口口口 |③---|
37
②口③① |①---|
口口口口 |②-③-|
口口口① |----|
口口口口 |----|
38
口口口口 |----|
口口②口 |①---|
口③口① |②---|
口口②口 |③---|
39
口口口口 |①---|
①③口② |②-③-|
口口口口 |----|
①口口口 |----|
40
口口口口 |----|
③口③口 |①---|
②②②口 |②---|
口①口口 |③---|
41
口①①口 |①---|
③⑥口口 |②-③-|
口②⑤口 |--④-|
口口口④ |⑤-⑥-|
42
口口口口 |----|
口口③口 |----|
口②口口 |--①-|
①口口口 |②-③-|
43
口口口口 |----|
口口口口 |----|
口口口口 |----|
口口口口 |----|
44
④口口口 |①---|
③口口⑥ |②-③-|
口②⑤口 |④---|
口①①口 |⑤-⑥-|
45
口③③① |①---|
口②②口 |②---|
口口口口 |③---|
口口口口 |----|
46
①③③① |①-②-|
②④④② |③-④-|
口口口口
口口口口

口口口口
⑦口口⑦
口⑥⑥口 |⑤---|
口⑤⑤口 |⑥-⑦-|
47
①③③① |①---|
口②②口 |②---|
口口口口 |③---|
口口口口 |----|
48
④口口口 |①---|
③口口⑥ |②-③-|
口②⑤口 |④---|
口①①口 |⑤-⑥-|
49
口③③① |①---|
口②②口 |②---|
口口口口 |③---|
口口口口 |----|
50
口口口口 |①-②-|
⑦①③⑦ |③-④-|
②⑥⑥④ |⑤---|
口⑤⑤口 |⑥-⑦-|
51
①③③① |①---|
口②②口 |②---|
口口口口 |③---|
口口口口 |----|
52
口口口口 |①---|
③①②④ |②---|
口口口口 |③---|
口口口口 |④---|
53
口口口③ |①-②-|
口①④口 |③-④-|
②⑤口口 |⑤---|
口口口口 |----|
54
口口口口 |①---|
口口口口 |②---|
①②④③ |③---|
口口口口 |④---|
55
③口口口 |①-②-|
口④①口 |③-④-|
口口⑤② |⑤---|
口口口口 |----|
56
④口口口 |①---|
③口口⑥ |②-③-|
口②⑤口 |④---|
口①①口 |⑤-⑥-|
57
口③⑤① |①-②-|
口②④口 |③-④-|
口口口口 |⑤---|
口口口口 |----|
58
口口口口 |①-②-|
⑦①③⑦ |③-④-|
②⑥⑥④ |⑤---|
口⑤⑤口 |⑥-⑦-|
59
①③⑤① |①-②-|
口②④口 |③-④-|
口口口口 |⑤---|
口口口口 |----|
最終更新:2019年08月22日 03:10