つけまつける
きゃりーぱみゅぱみゅ

EXTREME

Level: 7
BPM: 145
Notes: 535

1
口口口口 |----|
口口口口 |----|
口口口口 |----|
口口口口 |----|
2
口口口口 |----|
口口口口 |----|
口口口口 |----|
口口口口 |----|
3
口口口口 |----|
口口口口 |----|
口口口口 |----|
口口口口 |----|
4
口口口口 |①---|
⑤①①口 |②-③-|
②⑥⑥④ |④---|
口③③口 |⑤-⑥-|
5
口③⑤口 |①-②-|
口②④① |③-④-|
口口口口 |⑤---|
口口口口 |----|
6
②④④② |①-②-|
③②②③ |③-④-|
①③③①
口①①口

口口口口
口口口口
⑥口口口 |⑤---|
⑤⑦⑦⑤ |⑥-⑦-|
7
③口口③ |①---|
②③③② |②---|
口②②① |③---|
口口口口 |----|
8
口①①口 |①---|
口口口⑤ |②-③-|
②⑥⑥④ |④---|
口③③口 |⑤-⑥-|
9
③⑤⑤③ |①-②-|
①②②口 |③-④-|
口口口口 |⑤---|
口④④口 |----|
10
口⑤⑤口 |①-②-|
⑤②③⑤ |③-④-|
①口口④ |⑤---|
⑥②③⑦ |⑥-⑦-|
11
④③③④ |①---|
③②②③ |②-③-|
口①①口 |④---|
口口口口 |----|
12
口口口口 |①---|
口①①口 |②-③-|
口口口口
③②②③

口口口口
⑥⑤⑤⑥
④口口④ |④---|
口口口口 |⑤-⑥-|
13
①②③① |①-②-|
口④⑤口 |③-④-|
口口口口 |⑤---|
口口口口 |----|
14
口口口口 |①-②-|
口口口⑥ |③-④-|
口②⑤⑦ |⑤---|
①④③口 |⑥-⑦-|
15
口③③口 |①---|
口口①口 |②---|
口口口口 |③---|
口②②口 |----|
16
口口口口 |①---|
口①①口 |②-③-|
口口口口
③②②③

口口口口
⑥⑤⑤⑥
④口口④ |④---|
口口口口 |⑤-⑥-|
17
①②③① |①-②-|
口④⑤口 |③-④-|
口口口口 |⑤---|
口口口口 |----|
18
口口口口 |①-②-|
口口口⑥ |③-④-|
口②⑤⑦ |⑤---|
①④③口 |⑥-⑦-|
19
口②③口 |①-②-|
口④①口 |③-④-|
⑤口口口 |⑤---|
口口口口 |----|
20
口口③① |①---|
口③①口 |②---|
③①④② |③---|
口口④② |④---|
21
口①口③ |①-②-|
①④③口 |③-④-|
口③口⑤ |⑤---|
口口⑤② |----|
22
②口口③ |①---|
①口口① |②-③-|
②口口③
口口口口

口⑤⑥口
⑤④④⑥
口⑤⑥口 |④---|
口口口口 |⑤-⑥-|
23
①口口② |①-②-|
口③④口 |③-④-|
⑤口口⑤ |⑤---|
口⑤⑤口 |----|
24
口口③① |①---|
口③①口 |②---|
③①④② |③---|
口口④② |④---|
25
口①口③ |①-②-|
①④③口 |③-④-|
口③口⑤ |⑤---|
口口⑤② |----|
26
③①①③ |①---|
①③③① |②---|
口口口口 |③---|
④②②④ |④---|
27
⑤④④⑤ |①-②-|
口③③口 |③-④-|
口②②口 |⑤---|
口①①口 |----|
28
③④③④ |①---|
①②①② |②---|
③④③④ |③---|
①②①② |④---|
29
④⑤④⑤ |①-②-|
口③口③ |③-④-|
②口②口 |⑤---|
口①口① |----|
30
口口口口 |①---|
①口口④ |②-③-|
①⑥③④ |④---|
口②⑤口 |⑤-⑥-|
31
口④⑤口 |①-②-|
①③②口 |③-④-|
口口口口 |⑤---|
口口口口 |----|
32
口口口口 |①---|
口口口口 |②---|
口口口口 |③---|
④③②① |④---|
33
③④口口 |①-②-|
②⑤口口 |③-④-|
①口口口 |⑤---|
口口口口 |----|
34
口口口③ |①---|
②口口② |②-③-|
口①①口
②口口②

口⑥⑦口
口④④口
④口⑤④ |④-⑤-|
口④④口 |⑥-⑦-|
35
①口口① |①-②-|
②④④② |③-④-|
⑤③③⑤ |⑤---|
口口口口 |----|
36
口口口口 |----|
③③③③ |①---|
②②②② |②---|
①①①① |③---|
37
①①①① |①---|
口口口口 |②-③-|
②口口③ |----|
口口口口 |----|
38
①②③口 |----|
①②③口 |①---|
①②③口 |②---|
①②③口 |③---|
39
口口口① |①---|
口口口① |②-③-|
口②③① |----|
口口口① |----|
40
④口③② |----|
口①口① |①-②-|
口①①① |③---|
口口①口 |④---|
41
⑥⑥⑥⑥ |①---|
⑤⑤⑤⑤ |②-③-|
④④④④ |--④-|
②①①③ |⑤-⑥-|
42
口口口口 |----|
①①①① |----|
②②②② |--①-|
③③③③ |②-③-|
43
口口口口 |----|
口口口口 |----|
口口口口 |----|
口口口口 |----|
44
口口口口 |①---|
⑤①①口 |②-③-|
②⑥⑥④ |④---|
口③③口 |⑤-⑥-|
45
口③⑤口 |①-②-|
口②④① |③-④-|
口口口口 |⑤---|
口口口口 |----|
46
②④④② |①-②-|
③②②③ |③-④-|
①③③①
口①①口

口口口口
口口口口
⑥口口口 |⑤---|
⑤⑦⑦⑤ |⑥-⑦-|
47
③口口③ |①---|
②③③② |②---|
口②②① |③---|
口口口口 |----|
48
口①①口 |①---|
口口口⑤ |②-③-|
②⑥⑥④ |④---|
口③③口 |⑤-⑥-|
49
③⑤⑤③ |①-②-|
①②②口 |③-④-|
口口口口 |⑤---|
口④④口 |----|
50
口⑤⑤口 |①-②-|
⑤②③⑤ |③-④-|
①口口④ |⑤---|
⑥②③⑦ |⑥-⑦-|
51
④③③④ |①---|
③②②③ |②-③-|
口①①口 |④---|
口口口口 |----|
52
③④③④ |①---|
①②①② |②---|
③④③④ |③---|
①②①② |④---|
53
口口口口 |①-②-|
口①口① |③-④-|
②④②④ |⑤---|
⑤③⑤③ |----|
54
①②①② |①---|
③④③④ |②---|
①②①② |③---|
③④③④ |④---|
55
⑤③⑤③ |①-②-|
②④②④ |③-④-|
口①口① |⑤---|
口口口口 |----|
56
口口口口 |①---|
口①①口 |②-③-|
口口口口
③②②③

口口口口
⑥⑤⑤⑥
④口口④ |④---|
口口口口 |⑤-⑥-|
57
①②③① |①-②-|
口④⑤口 |③-④-|
口口口口 |⑤---|
口口口口 |----|
58
口口口口 |①-②-|
口口口⑥ |③-④-|
口②⑤⑦ |⑤---|
①④③口 |⑥-⑦-|
59
口②③口 |①-②-|
口④①口 |③-④-|
⑤口口口 |⑤---|
口口口口 |----|
最終更新:2019年08月22日 03:11