newsong


BASIC

Level: 4
BPM: 128
Notes: 216

1
口口口口 |----|
口口口口 |----|
口口口口 |----|
口口口口 |----|
2
口①口口 |①---|
口口②口 |②---|
口③③口 |③---|
口④④口 |④---|
3
口口①口 |①---|
口②口口 |②---|
口③③口 |③---|
口④④口 |④---|
4
口①口口 |①---|
口口②口 |②---|
口③③口 |③---|
口④④口 |④---|
5
口④④口 |①---|
③口口③ |②---|
口②②口 |③---|
①口口① |④---|
6
口口口口 |①---|
口②③口 |----|
口①①口 |②---|
口口口口 |③---|
7
口④④口 |①---|
口③口口 |②---|
①口②口 |③---|
口口口口 |④---|
8
口口口口 |----|
口②口③ |①---|
口口①口 |②---|
口口口口 |③---|
9
①口口口 |①---|
口②③口 |②---|
④口④口 |③---|
口口口口 |④---|
10
口③口口 |----|
口口②口 |①---|
口口口① |②---|
口口口口 |③---|
11
口口口口 |①---|
①④③④ |②---|
口②口口 |③---|
口口口口 |④---|
12
口口③口 |----|
口②口口 |①---|
①口口口 |②---|
口口口口 |③---|
13
④口④口 |①---|
口③口① |②---|
口口②口 |③---|
口口口口 |④---|
14
口口口口 |①---|
口②③口 |----|
口①①口 |②---|
口口口口 |③---|
15
口④④口 |①---|
口③口口 |②---|
①口②口 |③---|
口口口口 |④---|
16
口口口口 |----|
口②口③ |①---|
口口①口 |②---|
口口口口 |③---|
17
①口口口 |①---|
口②③口 |②---|
④口④口 |③---|
口口口口 |④---|
18
口③口口 |----|
口口②口 |①---|
口口口① |②---|
口口口口 |③---|
19
口口口口 |①---|
①④③④ |②---|
口②口口 |③---|
口口口口 |④---|
20
口口③口 |----|
口②口口 |①---|
①口口口 |②---|
口口口口 |③---|
21
④口④口 |①---|
口③口① |②---|
口口②口 |③---|
口口口口 |④---|
22
口②口④ |①---|
①口③口 |②---|
口口口口 |③---|
口口口口 |④---|
23
口口口口 |①---|
口口口口 |②---|
口③③② |③---|
口口①口 |----|
24
④口口口 |①---|
口③口口 |②---|
②口口口 |③---|
口①口口 |④---|
25
口口②口 |①---|
口③③① |②---|
口口口口 |③---|
口口口口 |----|
26
口口口④ |①---|
③口口口 |②---|
口①口② |③---|
口口口口 |④---|
27
口①口口 |①---|
口口②口 |②---|
口③③口 |③---|
口口口口 |----|
28
口口口口 |①---|
口①②口 |②---|
口口④③ |③---|
口口口口 |④---|
29
口③③口 |①---|
②①口口 |②---|
口口口口 |③---|
口口口口 |----|
30
口口口口 |①---|
①②②① |----|
口②②口 |②---|
口口口口 |----|
31
口口口口 |①---|
①口②口 |②---|
口③口④ |③---|
口口口口 |④---|
32
口①口口 |①---|
口口②口 |②---|
③口口③ |③---|
口口口口 |----|
33
口③口④ |①---|
口口口口 |②---|
口①口② |③---|
口口口口 |④---|
34
口④④口 |①---|
口③口① |②---|
口口②口 |③---|
口口口口 |④---|
35
口口口口 |----|
口口口口 |①---|
①②③口 |②---|
口口口口 |③---|
36
口口②口 |①---|
口③③① |②---|
口口口口 |③---|
口口口口 |----|
37
口口口口 |①---|
①口②口 |②---|
口④④③ |③---|
口口口口 |④---|
38
口口口口 |①---|
①口②口 |②---|
口③口④ |③---|
口口口口 |④---|
39
口①口口 |①---|
口口②口 |②---|
③口口③ |③---|
口口口口 |----|
40
口③口④ |①---|
口口口口 |②---|
口①口② |③---|
口口口口 |④---|
41
口④④口 |①---|
口③口① |②---|
口口②口 |③---|
口口口口 |④---|
42
口口口口 |①---|
口③口④ |②---|
②口①口 |③---|
口口口口 |④---|
43
口口②口 |①---|
①口口④ |②---|
口③③口 |③---|
口口口口 |④---|
44
口④①口 |①---|
②口③口 |②---|
口口口口 |③---|
口口口口 |④---|
45
口口口口 |①---|
口①②① |②---|
口③口③ |③---|
④口④口 |④---|
46
口口①口 |①---|
口②口口 |②---|
③口③口 |③---|
口④口④ |④---|
47
口①口口 |①---|
口口②口 |②---|
口③口③ |③---|
④口④口 |④---|
48
①①口口 |①---|
口口②② |②---|
③③口口 |③---|
口口④④ |④---|
最終更新:2019年08月22日 03:12