newsong


ADVANCED

Level: 6
BPM: 128
Notes: 388

1
口口口口 |----|
口口口口 |----|
口口口口 |----|
口口口口 |----|
2
口口口口 |①---|
口②口口 |②---|
口口①口
口口口口

口口③③
口口④④
口口⑤⑤ |③-④-|
口口⑥⑥ |⑤-⑥-|
3
口口口口 |①---|
口口②口 |②---|
口①口口
口口口口

③③口口
④④口口
⑤⑤口口 |③-④-|
⑥⑥口口 |⑤-⑥-|
4
口口口口 |①---|
口口口② |②---|
口口①口
口口口口

口③③口
口④④口
口⑤⑤口 |③-④-|
口⑥⑥口 |⑤-⑥-|
5
④口口① |①--②|
①口口④ |--③-|
②口口③ |-④--|
③口口② |----|
6
口口口口 |①---|
口③④⑤ |--②-|
②①①口 |③-④-|
⑥口口口 |⑤-⑥-|
7
口⑤⑥⑦ |①-②-|
⑤⑥⑦口 |③-④-|
④①口③ |--⑤-|
口口②口 |⑥-⑦-|
8
口口口⑥ |----|
⑤④③口 |①-②-|
口口②① |③-④-|
口口口口 |⑤-⑥-|
9
口①口口 |①-②-|
口口口口 |③-④-|
⑤④③② |⑤-⑥-|
⑥⑤④③ |----|
10
口⑥口口 |----|
⑤口口口 |①-②-|
口②③④ |③-④-|
①口口口 |⑤-⑥-|
11
口口口② |①-②-|
口口①口 |③-④-|
④⑤⑥口 |⑤-⑥-|
③④⑤⑥ |----|
12
口③④口 |----|
口口口② |①-②-|
口①⑥口 |③-④-|
口⑤口口 |⑤-⑥-|
13
①⑤④③ |--①-|
⑤④③② |②-③-|
口口口口 |④-⑤-|
口口口口 |----|
14
口口口口 |①---|
口③④⑤ |--②-|
②①①口 |③-④-|
⑥口口口 |⑤-⑥-|
15
口⑤⑥⑦ |①-②-|
⑤⑥⑦口 |③-④-|
④①口③ |--⑤-|
口口②口 |⑥-⑦-|
16
口口口⑥ |----|
⑤④③口 |①-②-|
口口②① |③-④-|
口口口口 |⑤-⑥-|
17
口①口口 |①-②-|
口口口口 |③-④-|
⑤④③② |⑤-⑥-|
⑥⑤④③ |----|
18
口⑥口口 |----|
⑤口口口 |①-②-|
口②③④ |③-④-|
①口口口 |⑤-⑥-|
19
口口口② |①-②-|
口口①口 |③-④-|
④⑤⑥口 |⑤-⑥-|
③④⑤⑥ |----|
20
口③④口 |----|
口口口② |①-②-|
口①⑥口 |③-④-|
口⑤口口 |⑤-⑥-|
21
①⑤④③ |--①-|
⑤④③② |②-③-|
口口口口 |④-⑤-|
口口⑥口 |--⑥-|
22
④口口⑤ |①-②-|
⑥③口⑦ |③-④-|
口口②① |--⑤-|
口口口口 |⑥-⑦-|
23
①①口口 |①-②-|
口②②口 |③-④-|
口④③③
④口④口

口口口口
口口口口
口口口⑤ |----|
口口口口 |--⑤-|
24
⑦①⑧⑧ |①-②-|
口口②④ |③-④-|
③口口⑥ |⑤-⑥-|
口⑤口口 |⑦-⑧-|
25
口口口口 |--①-|
口①①口 |②-③-|
②②③口 |----|
④③口③ |--④-|
26
口①口④ |①-②-|
口②⑦口 |③-④-|
口③⑥口 |--⑤-|
口口⑤口 |⑥-⑦-|
27
口①口口 |--①-|
口③口口 |②-③-|
口③口② |----|
口④口② |--④-|
28
口口④口 |①-②-|
口口口口 |③-④-|
①②③口
口口口口

口口口口
口口口⑤
口⑥口口 |--⑤-|
⑦口口口 |⑥-⑦-|
29
口口口口 |----|
口③口② |①-②-|
①口口口 |----|
口口口口 |③---|
30
口口口口 |①---|
口口口② |②---|
口口①口
口口口口

④③③口
口③③⑤
④口口口 |③---|
口口口⑤ |④--⑤|
31
口口⑦⑦ |--①-|
①②⑥⑥ |②-③-|
口③④⑤ |④-⑤-|
口口口口 |⑥-⑦-|
32
①口口口 |--①-|
④②③口 |②-③-|
⑤口④口 |④-⑤-|
口口⑤⑥ |--⑥-|
33
口⑤⑥③ |①-②-|
④口②⑦ |③-④-|
口①⑧口 |⑤-⑥-|
口口口口 |⑦-⑧-|
34
①①口② |--①-|
③③⑦④ |②-③-|
⑤⑤口⑥ |④-⑤-|
口口口口 |⑥-⑦-|
35
⑦⑦口口 |--①-|
⑥⑥⑤③ |②-③-|
口④②口 |④-⑤-|
口①口口 |⑥-⑦-|
36
口口口① |--①-|
④口②口 |②-③-|
口③⑤⑥ |--④-|
口口口口 |⑤-⑥-|
37
⑥口口④ |①-②-|
口③⑤⑦ |③-④-|
⑥②⑤口 |--⑤-|
口①口⑦ |⑥--⑦|
38
口口⑦⑦ |--①-|
①②⑥⑥ |②-③-|
口③④⑤ |④-⑤-|
口口口口 |⑥-⑦-|
39
①口口口 |--①-|
④②③口 |②-③-|
⑤口④口 |④-⑤-|
口口⑤⑥ |--⑥-|
40
口⑤⑥③ |①-②-|
④口②⑦ |③-④-|
口①⑧口 |⑤-⑥-|
口口口口 |⑦-⑧-|
41
①①口② |--①-|
③③⑦④ |②-③-|
⑤⑤口⑥ |④-⑤-|
口口口口 |⑥-⑦-|
42
⑦⑦口口 |--①-|
⑥⑥⑤③ |②-③-|
口④②口 |④-⑤-|
口①口口 |⑥-⑦-|
43
口口⑥口 |--①-|
口⑤口① |②-③-|
④口②口 |--④-|
口③口口 |⑤-⑥-|
44
口口口口 |①-②-|
口口口④ |③-④-|
口口③①
口②口口

口口口口
⑥口⑥口
⑤⑦口⑦ |--⑤-|
口口口口 |⑥-⑦-|
45
口口②② |----|
口①③③ |①---|
口口④④ |②-③-|
口口⑤⑤ |④-⑤-|
46
口口口口 |①---|
口口②口 |②---|
口①口口
口口口口

③③口口
④④口口
⑤⑤口口 |③-④-|
⑥⑥口口 |⑤-⑥-|
47
口口口口 |①---|
口口口② |②---|
口口①口
口口口口

口③③口
口④④口
口⑤⑤口 |③-④-|
口⑥⑥口 |⑤-⑥-|
48
④口口① |①--②|
①⑤⑤④ |--③-|
②⑤⑤③ |-④--|
③口口② |⑤---|
最終更新:2019年08月22日 03:13