NO WAVE≒斜陽"
0.8秒と衝撃。

BASIC

Level: 4
BPM: 164
Notes: 222

1
口口口口 |----|
口口口口 |----|
口口口口 |----|
口口口口 |----|
2
口口口口 |①---|
口口口口 |②---|
④③②① |③---|
口口口口 |④---|
3
口口口口 |----|
①②口口 |①---|
口口口口 |----|
口口口口 |②---|
4
口口口口 |----|
口口①② |①---|
口口口口 |----|
口口口口 |②---|
5
口口口口 |----|
口口口口 |①---|
口口②① |----|
口口口口 |②---|
6
口口口口 |----|
口口口口 |①---|
②①口口 |----|
口口口口 |②---|
7
口口②口 |----|
口①口口 |①---|
口口口口 |----|
口口口口 |②---|
8
口①口口 |----|
口口②口 |①---|
口口口口 |----|
口口口口 |②---|
9
口口口口 |----|
口口口口 |①---|
口①口口 |----|
口口②口 |②---|
10
口口口口 |----|
口口口口 |①---|
口口①口 |----|
口②口口 |②---|
11
口口口口 |①---|
口口口口 |②---|
口口④③ |③---|
口口①② |④---|
12
口口口口 |①---|
口口口口 |②---|
④①口口 |③---|
③②口口 |④---|
13
②③口口 |①---|
①④口口 |②---|
口口口口 |③---|
口口口口 |④---|
14
口口②③ |①---|
口口①④ |②---|
口口口口 |③---|
口口口口 |④---|
15
口口口口 |①---|
口口口口 |②---|
口口④① |③---|
口口③② |④---|
16
口口口口 |①---|
口口口口 |②---|
④①口口 |③---|
③②口口 |④---|
17
口口口口 |①---|
①②③④ |②---|
口口口口 |③---|
口口口口 |④---|
18
口①①口 |①---|
口②②口 |②---|
口③③口 |③---|
口④④口 |④---|
19
口口口口 |----|
①②口口 |①---|
口口口口 |----|
口口口口 |②---|
20
口口口口 |----|
口口①② |①---|
口口口口 |----|
口口口口 |②---|
21
口口口口 |----|
口口口口 |①---|
口口②① |----|
口口口口 |②---|
22
口口口口 |----|
口口口口 |①---|
②①口口 |----|
口口口口 |②---|
23
口口②口 |----|
口①口口 |①---|
口口口口 |----|
口口口口 |②---|
24
口①口口 |----|
口口②口 |①---|
口口口口 |----|
口口口口 |②---|
25
口口口口 |----|
口口口口 |①---|
口①口口 |----|
口口②口 |②---|
26
口口口口 |----|
口口口口 |①---|
口口①口 |----|
口②口口 |②---|
27
口口口口 |①---|
口口口口 |②---|
口口④③ |③---|
口口①② |④---|
28
口口口口 |①---|
口口口口 |②---|
④①口口 |③---|
③②口口 |④---|
29
②③口口 |①---|
①④口口 |②---|
口口口口 |③---|
口口口口 |④---|
30
口口②③ |①---|
口口①④ |②---|
口口口口 |③---|
口口口口 |④---|
31
口口口口 |①---|
口口口口 |②---|
口口④① |③---|
口口③② |④---|
32
口口口口 |①---|
口口口口 |②---|
④①口口 |③---|
③②口口 |④---|
33
口口口口 |①---|
①②③④ |②---|
口口口口 |③---|
口口口口 |④---|
34
口①①口 |①---|
口②②口 |②---|
口③③口 |③---|
口④④口 |④---|
35
口口口口 |①---|
口口口口 |②---|
口③③口 |③---|
②口口① |----|
36
口口口口 |①---|
口③③口 |②---|
②口口① |③---|
口口口口 |----|
37
口③③口 |①---|
②口口① |②---|
口口口口 |③---|
口口口口 |----|
38
口口口口 |①---|
口口①口 |②---|
口②口口 |③---|
口口③口 |----|
39
口口口口 |①---|
口口口口 |②---|
口③③口 |③---|
②口口① |----|
40
口口口口 |①---|
口③③口 |②---|
②口口① |③---|
口口口口 |----|
41
④口口③ |①---|
②口口① |②---|
口口口口 |③---|
口口口口 |④---|
42
口①①口 |①---|
口口口口 |----|
口口口口 |----|
口口口口 |----|
43
①口口① |①---|
口②②口 |----|
口口口口 |②---|
口口口口 |----|
44
口口口口 |①---|
口口口口 |----|
①口口① |②---|
口②②口 |----|
45
口口口口 |①---|
口口口口 |----|
口②②口 |②---|
①口口① |----|
46
口②②口 |①---|
①口口① |----|
口口口口 |②---|
口口口口 |----|
47
口口口口 |①---|
口①②③ |②---|
口口口口 |③---|
口口口口 |----|
48
口口口口 |①---|
口口口口 |②---|
③②①口 |③---|
口口口口 |----|
49
口口口口 |①---|
口口口口 |②---|
口口口口 |③---|
口①②③ |----|
50
③口口③ |①---|
口②②口 |②---|
口①①口 |③---|
口口口口 |----|
51
口②口口 |①---|
①口口口 |----|
口口口口 |②---|
口口口口 |----|
52
口口口② |①---|
口口①口 |----|
口口口口 |②---|
口口口口 |----|
53
口口口口 |①---|
口口口① |----|
口口②口 |②---|
口口口口 |----|
54
口口口口 |①---|
口①口口 |----|
②口口口 |②---|
口口口口 |----|
55
口④口口 |①---|
口③口口 |②---|
口②口口 |③---|
口①口口 |④---|
56
口口①口 |①---|
口口②口 |②---|
口口③口 |③---|
口口④口 |④---|
57
口口口④ |①---|
口口口③ |②---|
口口口② |③---|
口口口① |④---|
58
口①①口 |①---|
口②②口 |②---|
口③③口 |③---|
口口口口 |----|
59
口口口口 |①---|
口口口口 |②---|
口口口口 |③---|
①②③④ |④---|
60
口口④口 |①---|
口口③② |②---|
口口口① |③---|
口口口口 |④---|
61
口①口口 |①---|
③②口口 |②---|
④口口口 |③---|
口口口口 |④---|
62
口口口口 |①---|
口口口口 |②---|
口①②口 |③---|
口口③口 |----|
63
口口口口 |①---|
口④口口 |②---|
②③口口 |③---|
①口口口 |④---|
64
口口④③ |①---|
口口①② |②---|
口口口口 |③---|
口口口口 |④---|
65
口①口口 |①---|
口②②口 |----|
口口口口 |②---|
口口口口 |----|
66
口口口口 |①---|
口口口口 |----|
口①①口 |----|
口口口口 |----|
最終更新:2019年11月11日 14:42