NO WAVE≒斜陽"
0.8秒と衝撃。

ADVANCED

Level: 7
BPM: 164
Notes: 522

1
口口口口 |----|
口口口口 |----|
口口口口 |----|
口口口口 |----|
2
口口口口 |①---|
①口口② |②---|
①⑤②口 |③--④|
③口口④ |--⑤-|
3
①口③口 |--①-|
口口②口 |②-③-|
④口⑥口 |--④-|
口口⑤口 |⑤-⑥-|
4
口①口③ |--①-|
口口口② |②-③-|
口⑥⑦口 |④-⑤-|
④口口⑤ |⑥⑦--|
5
口①口③ |--①-|
口口②口 |②-③-|
口④口⑥ |--④-|
口口⑤口 |⑤-⑥-|
6
口口②口 |--①-|
口①口③ |②-③-|
口⑥⑦口 |④-⑤-|
④口口⑤ |⑥⑦--|
7
口①口③ |--①-|
口口口② |②-③-|
④口⑥口 |--④-|
口口⑤口 |⑤-⑥-|
8
①口口③ |--①-|
口口口② |②-③-|
口⑥⑦口 |④-⑤-|
④口口⑤ |⑥⑦--|
9
口①口③ |--①-|
口口②口 |②-③-|
口④口⑥ |--④-|
口口⑤口 |⑤-⑥-|
10
④口口② |①---|
口④②口 |②---|
口口口口 |③---|
③口口① |④---|
11
⑨口①⑨ |①-②-|
⑧⑥⑦⑧ |③-④⑤|
②④⑤口 |-⑥⑦-|
口口口③ |⑧-⑨-|
12
⑨口口⑨ |①-②-|
⑧⑥⑦⑧ |③-④⑤|
口④⑤① |-⑥⑦-|
口②口③ |⑧-⑨-|
13
⑨口①⑨ |①-②-|
⑧⑥⑦⑧ |③-④⑤|
口④⑤口 |-⑥⑦-|
②口③口 |⑧-⑨-|
14
⑨口口⑨ |①-②-|
⑧⑥⑦⑧ |③-④⑤|
口④⑤① |-⑥⑦-|
口②口③ |⑧-⑨-|
15
⑨口①⑨ |①-②-|
⑧⑥⑦⑧ |③-④⑤|
口④⑤③ |-⑥⑦-|
口②口口 |⑧-⑨-|
16
⑨口口⑨ |①-②-|
⑧⑥⑦⑧ |③-④⑤|
②④⑤① |-⑥⑦-|
口口③口 |⑧-⑨-|
17
⑨口①⑨ |①-②-|
⑧⑥⑦⑧ |③-④⑤|
口④⑤③ |-⑥⑦-|
②口口口 |⑧-⑨-|
18
口口③⑤ |①--②|
口⑥口口 |--③-|
④口口口 |④--⑤|
口②口① |--⑥-|
19
①口③口 |--①-|
口口②口 |②-③-|
④口⑥口 |--④-|
口口⑤口 |⑤-⑥-|
20
口①口③ |--①-|
口口口② |②-③-|
口⑥⑦口 |④-⑤-|
④口口⑤ |⑥⑦--|
21
口①口③ |--①-|
口口②口 |②-③-|
口④口⑥ |--④-|
口口⑤口 |⑤-⑥-|
22
口口②口 |--①-|
口①口③ |②-③-|
口⑥⑦口 |④-⑤-|
④口口⑤ |⑥⑦--|
23
口①口③ |--①-|
口口口② |②-③-|
④口⑥口 |--④-|
口口⑤口 |⑤-⑥-|
24
①口口③ |--①-|
口口口② |②-③-|
口⑥⑦口 |④-⑤-|
④口口⑤ |⑥⑦--|
25
口①口③ |--①-|
口口②口 |②-③-|
口④口⑥ |--④-|
口口⑤口 |⑤-⑥-|
26
②口口④ |①---|
口②④口 |②---|
口口口口 |③---|
①口口③ |④---|
27
⑨口①⑨ |①-②-|
⑧⑥⑦⑧ |③-④⑤|
②④⑤口 |-⑥⑦-|
口口口③ |⑧-⑨-|
28
⑨口口⑨ |①-②-|
⑧⑥⑦⑧ |③-④⑤|
口④⑤① |-⑥⑦-|
口②口③ |⑧-⑨-|
29
⑨口①⑨ |①-②-|
⑧⑥⑦⑧ |③-④⑤|
口④⑤口 |-⑥⑦-|
②口③口 |⑧-⑨-|
30
⑨口口⑨ |①-②-|
⑧⑥⑦⑧ |③-④⑤|
口④⑤① |-⑥⑦-|
口②口③ |⑧-⑨-|
31
⑨口①⑨ |①-②-|
⑧⑥⑦⑧ |③-④⑤|
口④⑤③ |-⑥⑦-|
口②口口 |⑧-⑨-|
32
⑨口口⑨ |①-②-|
⑧⑥⑦⑧ |③-④⑤|
②④⑤① |-⑥⑦-|
口口③口 |⑧-⑨-|
33
⑨口①⑨ |①-②-|
⑧⑥⑦⑧ |③-④⑤|
口④⑤③ |-⑥⑦-|
②口口口 |⑧-⑨-|
34
口口③⑤ |①--②|
口⑥口口 |--③-|
④口口口 |④--⑤|
口②口① |--⑥-|
35
①口口口 |①--②|
④④口口 |--③-|
③③口② |--④-|
口口口⑤ |--⑤-|
36
口①口口 |①--②|
④④口② |--③-|
③③口口 |--④-|
口口口⑤ |--⑤-|
37
①口口口 |①--②|
④④口口 |--③-|
③③口② |--④-|
口口口⑤ |--⑤-|
38
口③③口 |①---|
口④④② |②---|
口口口口 |③--④|
口①口⑤ |--⑤-|
39
①口口口 |①--②|
④④口口 |--③-|
③③口② |--④-|
口口口⑤ |--⑤-|
40
口①口口 |①--②|
④④口② |--③-|
③③口口 |--④-|
口口口⑤ |--⑤-|
41
口⑥⑤口 |①--②|
口口口④ |--③-|
口②③口 |④--⑤|
①口口口 |--⑥-|
42
口口口口 |①---|
④③②口 |----|
①口口口 |②-③-|
①口口口 |④---|
43
③口③口 |①--②|
④口④口 |--③-|
①②①口 |--④-|
口口口⑤ |--⑤-|
44
口③口③ |①--②|
口④口④ |--③-|
口①②① |--④-|
口口口⑤ |--⑤-|
45
③口③口 |①--②|
④口④口 |--③-|
①②①口 |--④-|
口口口⑤ |--⑤-|
46
口③口③ |①--②|
口④口④ |--③-|
口①②① |--④-|
口口口⑤ |--⑤-|
47
③口③③ |①--②|
④口④④ |--③-|
①②①① |--④-|
口口口⑤ |--⑤-|
48
③③口③ |①--②|
④④口④ |--③-|
①①②① |--④-|
口口口⑤ |--⑤-|
49
③口③③ |①--②|
④口④④ |--③-|
①②①① |--④-|
口口口⑤ |--⑤-|
50
口口③口 |①--②|
口②口口 |--③-|
①口①口
口口口口

口口口口
口口口口
口④④口 |----|
口口口口 |④---|
51
①口口③ |①---|
②口口④ |②---|
①口口③ |③---|
口口口口 |④---|
52
口①口口 |①---|
④②口口 |②---|
④①③口 |③---|
口口③口 |④---|
53
口口口口 |①---|
③口口① |②---|
④口口② |③---|
③口口① |④---|
54
①①①口 |①---|
口②②② |②---|
③③③口 |③---|
口④④④ |④---|
55
①②⑥⑦ |①②③④|
③④⑧⑨ |⑤---|
⑤口⑩口 |⑥⑦⑧⑨|
口口口口 |⑩---|
56
口口口口 |①②③④|
①②⑥⑦ |⑤---|
③④⑧⑨ |⑥⑦⑧⑨|
⑤口⑩口 |⑩---|
57
①①③③ |①---|
口口口口 |②---|
②②④④ |③---|
口口口口 |④---|
58
④④④④ |①--②|
口③③口 |--③-|
②②口口 |④---|
①①口口 |----|
59
口口口口 |①-②-|
口②③④ |③-④-|
①口口⑤ |⑤-⑥-|
口④⑦⑥ |⑦---|
60
口②③④ |①-②-|
①口口⑤ |③-④-|
口⑦⑥口 |⑤-⑥-|
口口口口 |⑦---|
61
口口口口 |①-②-|
口⑤④③ |③-④-|
⑥口口② |⑤-⑥-|
口⑦①口 |⑦---|
62
口口⑤口 |①-②-|
口⑥口口 |③-④-|
⑦①口④ |--⑤-|
口口②③ |⑥-⑦-|
63
口口⑥⑦ |①-②-|
口⑤④口 |③-④-|
口口口③ |⑤-⑥-|
口①②口 |⑦---|
64
口口口口 |①-②-|
口⑥口① |③-④-|
⑤口⑦② |⑤-⑥-|
口④③口 |⑦---|
65
①口口① |①---|
口②②口 |----|
口口口口 |②---|
口口口口 |----|
66
口④⑤口 |①--②|
③口口⑥ |--③-|
①②口① |④--⑤|
口口口口 |--⑥-|
最終更新:2019年11月11日 14:42