Buddy
坂本真綾

BASIC

Level: 3
BPM: 156-180
Notes: 174

BPM: 156
1
口口口口 |----|
口口口口 |----|
口口口口 |----|
口口口口 |----|
2
口口口口 |----|
口口口口 |----|
口口口口 |----|
口口口口 |----|
3
口口口口 |①---|
口口口口 |----|
口口口口 |----|
口口①口 |----|
4
口口口口 |①---|
口口口口 |----|
口口①口 |----|
口口口口 |----|
5
口口口口 |①---|
口口口口 |----|
口①口口 |----|
口口口口 |----|
6
口口口口 |①---|
口①口口 |----|
口口口口 |----|
口口口口 |----|
7
口口口口 |①---|
口口口口 |----|
口口口口 |②---|
口①②口 |----|
8
口口口口 |①---|
口口口② |----|
口口口① |②---|
口口口口 |----|
9
口②①口 |①---|
口口口口 |----|
口口口口 |②---|
口口口口 |----|
10
口口口口 |①---|
①口口口 |----|
②口口口 |②---|
口口口口 |----|

BPM: 180
11
口口口口 |----|
口口口口 |----|
口口口口 |----|
口口口口 |----|

BPM: 173
12
①口口口 |①---|
口②口口 |----|
口口口口 |②---|
口口口口 |----|
13
口口口② |①---|
口口①口 |----|
口口口口 |②---|
口口口口 |----|
14
口口口口 |①---|
口②①口 |----|
口口口口 |②---|
口口口口 |----|
15
口口口口 |①---|
口口口口 |----|
①口口口 |②---|
口②口口 |----|
16
口口口口 |①---|
口口口口 |----|
口口口② |②---|
口口①口 |----|
17
口口口口 |①---|
口①①口 |----|
口口口口 |----|
口口口口 |----|
18
口口口口 |①---|
口口口口 |----|
②口口口 |②---|
口①口口 |----|
19
口②口口 |①---|
①口口口 |----|
口口口口 |②---|
口口口口 |----|
20
口口①口 |①---|
口口口② |----|
口口口口 |②---|
口口口口 |----|
21
口口口口 |①---|
口②②口 |----|
口③③① |②---|
口口口口 |③---|
22
口口口口 |----|
口口口口 |----|
口口口口 |----|
口口口口 |----|
23
口口口口 |----|
口口口口 |----|
口口口口 |----|
口口口口 |----|
24
口口口口 |①---|
口口口口 |----|
口口口② |②---|
口口①口 |----|
25
口口②口 |①---|
口口口① |----|
口口口口 |②---|
口口口口 |----|
26
口①口口 |①---|
②口口口 |----|
口口口口 |②---|
口口口口 |----|
27
口口口口 |①---|
口②②口 |----|
①③③口 |②---|
口口口口 |③---|
28
口口口口 |----|
口口口口 |----|
口口口口 |----|
口口口口 |----|
29
口口口口 |----|
口②②口 |----|
口①①口 |①---|
口口口口 |②---|
30
口口口口 |----|
口口口口 |----|
口口口口 |----|
口口口口 |----|
31
口口口口 |----|
口口口口 |----|
口口口口 |----|
口口口口 |----|
32
口口①口 |①---|
口②口口 |----|
口口口口 |②---|
口口口口 |----|
33
口口口口 |①---|
口口口① |----|
口口②口 |②---|
口口口口 |----|
34
口口口口 |①---|
口口口口 |----|
②口口口 |②---|
口①口口 |----|
35
口口口口 |①---|
口②口口 |----|
口口①口 |②---|
口口口口 |----|
36
口①①口 |①---|
口口口口 |----|
口口口口 |----|
口口口口 |----|
37
口口口口 |----|
口口口口 |----|
口口口口 |----|
口口口口
38
口口口口 |①---|
口①①口 |----|
口口口口 |②---|
口口②口 |----|
39
口口口口 |①---|
口①①口 |----|
口口口口 |②---|
口②口口 |----|
40
口口口口 |①---|
③口口口 |②---|
②口口口 |③---|
①口口④ |④---|
41
口口口口 |①---|
口口口② |②---|
口④④① |③---|
口③③口 |④---|
42
②③④口 |①---|
口①①口 |②---|
口口口口 |③---|
口口口口 |④---|
43
口口口口 |①---|
口①①口 |②---|
②③④口 |③---|
口口口口 |④---|
44
口④③② |①---|
口①①口 |②---|
口口口口 |③---|
口口口口 |④---|
45
口口口口 |①---|
口①①口 |②---|
②③④口 |③---|
口口口口 |④---|
46
口④③② |①---|
口①①口 |②---|
口口口口 |③---|
口口口口 |④---|
47
口口口口 |①---|
①口③口 |②---|
口②口④ |③---|
口口口口 |④---|
48
口口口口 |①---|
口口口口 |----|
口口口② |----|
口①①口 |②---|
49
口④口口 |①---|
③口①口 |②---|
口②口口 |③---|
口口口口 |④---|
50
口口口口 |①---|
口①①口 |----|
口口口口
口口口口

口口口口
口②口口
口口口口 |----|
口口口口 |②---|
51
①②③④ |①---|
口口口口 |②---|
口口口口 |③---|
口口口口 |④---|
52
口口口口 |①---|
口①①口 |②---|
②③④口 |③---|
口口口口 |④---|
53
口④③② |①---|
口①①口 |②---|
口口口口 |③---|
口口口口 |④---|
54
口口口口 |①---|
口①①口 |②---|
口④③② |③---|
口口口口 |④---|
55
口口口口 |①---|
口口口口 |②---|
③口④口 |③---|
①口②口 |④---|
56
口③口④ |①---|
口①口② |②---|
口口口口 |③---|
口口口口 |④---|
57
①口②口 |①---|
③口④口 |②---|
口口口口 |③---|
口口口口 |④---|
58
口口口口 |①---|
口口口口 |②---|
口①口② |③---|
口③口④ |④---|
59
口口口口 |①---|
口口口口 |----|
②②①① |②---|
口口口口 |----|
60
口口口口 |①---|
②②①① |----|
口口口口 |②---|
口口口口 |----|
61
②②①① |①---|
口口口口 |----|
口口口口 |②---|
口口口口 |----|
62
口口①① |①---|
②②口口 |----|
口口口口 |②---|
口口口口 |----|
63
口口口口 |①---|
口口①① |----|
②②口口 |②---|
口口口口 |----|
64
口①①口 |①---|
口①①口 |----|
口口口口 |----|
口口口口 |----|
最終更新:2019年08月22日 03:18