Buddy
坂本真綾

ADVANCED

Level: 6
BPM: 156-180
Notes: 316

BPM: 156
1
口口口口 |----|
口口口口 |----|
口口口口 |----|
口口口口 |----|
2
口口③口 |----|
口口口口 |①---|
口②口口 |②---|
口①口口 |③---|
3
口口口口 |①---|
①口口口 |----|
口口口③ |----|
口口②口 |②-③-|
4
③口口口 |----|
口口②口 |①---|
口口①口 |②---|
口口口口 |③---|
5
口口口② |①---|
口口③口 |----|
口①口口 |----|
口口口口 |②-③-|
6
口口口口 |----|
口口口口 |----|
口口②口 |----|
口①口口 |①-②-|
7
口口口口 |①---|
口①口口 |②---|
口口口口
②口口②

③口口③
口④口口
口口④口 |③---|
口口口口 |④---|
8
②口口③ |----|
口口①口 |①---|
口①口口 |②---|
③口口② |③---|
9
①口口① |----|
口口口口 |----|
口口口口 |----|
口口口口 |①---|
10
口口口口 |①---|
口①①口 |②---|
口②②口 |③---|
口③③口 |----|

BPM: 180
11
口口口口 |----|
口口口口 |----|
口口口口 |----|
口口口口 |----|

BPM: 173
12
口口口口 |--①-|
③③口口 |----|
口口②② |②---|
①①口口 |--③-|
13
口口①① |----|
口口口口 |①---|
口口口口 |--②-|
口口②② |----|
14
③③口口 |①---|
口口②② |--②-|
①①口口 |----|
口口口口 |③---|
15
口口口口 |--①-|
③③口口 |----|
口口②② |②---|
①①口口 |--③-|
16
口口①① |----|
口口口口 |①---|
口口口口 |--②-|
口口②② |----|
17
口口口口 |①---|
①①①① |----|
口口口口 |----|
口口口口 |----|
18
口口口④ |①---|
口①①口 |②---|
口③口口 |③---|
②口口口 |④---|
19
口口口口 |----|
口口①口 |①---|
口②口口 |②---|
口口③口 |③---|
20
①口口口 |①---|
口③②口 |--②-|
口②①口 |----|
口口口③ |③---|
21
口口①口 |----|
口①口② |----|
①口②口 |①---|
口②口口 |②---|
22
口口③口 |①---|
②口口④ |--②-|
口口口口 |--③-|
口口口① |④---|
23
口口口口 |①---|
口口口口 |----|
口口口口 |----|
口口①口 |----|
24
④口口口 |①---|
口①①口 |②---|
口口③口 |③---|
口口口② |④---|
25
口口口口 |----|
口①口口 |①---|
口口②口 |②---|
口③口口 |③---|
26
口口口① |①---|
口②③口 |--②-|
口①②口 |----|
③口口口 |③---|
27
口①口口 |----|
②口①口 |----|
口②口① |①---|
口口②口 |②---|
28
口口口口 |①---|
③口口② |--②-|
口口口口 |----|
①口口口 |③---|
29
口口②口 |--①-|
口②口③ |----|
②口③① |②---|
口③口口 |③---|
30
口口口口 |①---|
口口口③ |--②-|
②口口口 |----|
口口口① |③---|
31
口口口② |--①-|
口①口口 |----|
口口口口 |②---|
口口口口 |----|
32
①口口③ |①---|
①口口③ |--②-|
口口口口 |----|
口②②口 |③---|
33
口口口口 |--①-|
口②②口 |----|
口口口口 |②---|
口①①口 |----|
34
口口口口 |----|
口口口口 |----|
口口口口 |----|
口①①口 |①---|
35
③③③③ |----|
②②②② |①---|
①①①① |②---|
口口口口 |③---|
36
口口口口 |----|
口口口口 |----|
口口口口 |----|
口口口口 |----|
37
口口①口 |----|
口口①口 |①---|
②②口口 |②---|
口口口口
38
②口口口 |①---|
口②口口 |--②-|
口口①口
口口①口

口口口口
口口口口
口口③口 |----|
口口口③ |③---|
39
口口口① |--①-|
口口①口 |----|
口②口口 |②---|
②口口口 |----|
40
①⑥②⑦ |①-②-|
③口④口 |③-④-|
⑤⑤口口 |⑤---|
口口口口 |⑥-⑦-|
41
口口口口 |①-②-|
口①口② |③---|
口口③③
口口口口

口口⑤⑥
口口④⑦
⑦④口口 |④-⑤-|
⑥⑤口口 |⑥-⑦-|
42
④口口口 |①---|
①口③口 |②---|
口口口① |③---|
口口②口 |④---|
43
③口口② |①---|
口②③口 |----|
①口口口 |----|
口①口口 |②-③-|
44
口口③口 |----|
口②口口 |①---|
①口口口 |②---|
口口口口 |③---|
45
②口口③ |①---|
口③②口 |----|
口口口① |----|
口口①口 |②-③-|
46
口口口口 |--①-|
口口口⑦ |②-③-|
①②③⑥ |④-⑤-|
口④⑤口 |⑥-⑦-|
47
②口③① |①---|
口④口口 |②---|
③口②口 |③---|
口口口④ |④---|
48
口口口② |①---|
口③口① |----|
口口口口 |----|
口①口口 |②-③-|
49
④②②④ |①---|
口口口口 |②---|
口口口① |③---|
口③③口 |④---|
50
⑦⑤④⑦ |①-②-|
口③②⑥ |③-④-|
口口口口 |⑤-⑥-|
①口口① |⑦---|
51
口口口口 |①---|
口①①口 |----|
口③②口 |----|
②口口③ |②-③-|
52
口口③口 |----|
口②口③ |①---|
①口②口 |②---|
口①口口 |③---|
53
口①口口 |①---|
①口口口 |----|
③口口② |----|
口②③口 |②-③-|
54
口口口口 |----|
口口口口 |----|
口②口口 |----|
①口口口 |①-②-|
55
③③③③ |①---|
口口①口 |②---|
口口口口 |③---|
④②②④ |④---|
56
③口口② |----|
③①口② |①---|
②口①③ |②---|
②口口③ |③---|
57
口口口① |----|
口口口口 |----|
口口口口 |----|
①口口口 |①---|
58
口③口口 |①---|
③②①口 |----|
口①②③ |②---|
口口③口 |③---|
59
口口口口 |--①-|
③③口口 |----|
口口②② |②---|
①①口口 |--③-|
60
口口①① |----|
口口口口 |①---|
口口口口 |--②-|
口口②② |----|
61
③③口口 |①---|
口口②② |--②-|
①①口口 |----|
口口口口 |③---|
62
口口口口 |--①-|
③③口口 |----|
口口②② |②---|
①①口口 |--③-|
63
口口①① |----|
口口口口 |①---|
口口口口 |--②-|
口口②② |----|
64
口口口口 |①---|
①①①① |----|
口口口口 |----|
口口口口 |----|
最終更新:2019年08月22日 03:19