Buddy
坂本真綾

EXTREME

Level: 9
BPM: 156-180
Notes: 539

BPM: 156
1
口口口口 |----|
口口口口 |----|
口口口口 |----|
口口口口 |----|
2
口口口③ |----|
口口口口 |①---|
口口②口 |②---|
口①口口 |③---|
3
口①口口 |①---|
①口口口 |----|
口口③口 |----|
口口②口 |②-③-|
4
③口口口 |----|
口口②口 |①---|
口①口口 |②---|
口口口口 |③---|
5
口口①口 |①---|
口口口① |----|
口②口口 |----|
口口③口 |②-③-|
6
口口口口 |----|
口①口口 |----|
口口②口 |----|
①口口口 |①-②-|
7
口口口口 |①---|
口口口口 |②---|
①②口口
口①口②

口口口③
口③④口
④口口口 |③---|
口口口口 |④---|
8
③①口口 |①---|
口口口③ |②---|
口④口② |③---|
④口②口 |④---|
9
④口口④ |①---|
口口口口 |②---|
①口口③ |③---|
口口②口 |④---|
10
口口口口 |①---|
口①②口 |②---|
口④①口 |③---|
③口口③ |④---|

BPM: 180
11
口口口口 |①---|
口①③口 |②---|
口④②口 |③---|
口口口口 |④---|

BPM: 173
12
⑦②②⑥ |①-②-|
④⑧⑧口 |③-④-|
口口口③ |⑤-⑥-|
①⑤⑤口 |⑦-⑧-|
13
口口口④ |①-②-|
②口口口 |③-④-|
口③③口
口口口①

口⑥⑥口
⑧口口口
口口口⑦ |⑤-⑥-|
⑤口口口 |⑦-⑧-|
14
③口口② |①-②-|
口④④口 |③-④-|
口口口口
口①①口

口口口⑧
⑥口口口
口⑦⑦口 |⑤-⑥-|
口口口⑤ |⑦-⑧-|
15
⑦②②⑥ |①-②-|
④⑧⑧口 |③-④-|
口口口③ |⑤-⑥-|
①⑤⑤口 |⑦-⑧-|
16
口口④口 |①-②-|
②口口口 |③-④-|
口③③口
口口口①

口口口口
⑧⑥⑥口
⑤口口口 |⑤-⑥-|
口⑦口口 |⑦-⑧-|
17
⑦口口① |①②③④|
口口⑥② |--⑤-|
⑤口口③ |-⑥--|
口口口④ |⑦---|
18
口口⑤⑤ |①---|
口口③口 |②-③-|
④①①口 |④---|
口口②口 |⑤---|
19
口①口口 |--①-|
口口口口 |②---|
②口④口 |③---|
口③口口 |④---|
20
③口②口 |①---|
口①①口 |--②-|
②口③口 |----|
口口口① |③---|
21
口②③口 |①---|
①③②口 |----|
③口口② |②---|
口口口口 |③---|
22
口口⑧⑦ |①-②-|
口口口⑥ |③-④-|
口口口⑤ |⑤-⑥-|
①②③④ |⑦-⑧-|
23
②①口口 |①-②-|
③口口口 |③-④-|
④口口口
口口口口

⑫⑪⑩⑨
口⑥⑦口
口⑧⑤口 |⑤⑥⑦⑧|
口口口口 |⑨⑩⑪⑫|
24
口⑤口口 |①---|
口口④⑤ |②-③-|
③口③② |④---|
口①①口 |⑤---|
25
口口①④ |--①-|
②口④口 |②---|
②口口口 |③---|
口③③口 |④---|
26
口口口口 |①---|
①口口③ |②-③-|
口③①②
①口口③

口④口④
口口口口
口口④口 |----|
口口口口 |④---|
27
口②口口 |①---|
口口②③ |----|
①口③② |②---|
口③口口 |③---|
28
④⑤⑥⑦ |①-②-|
③口口⑧ |③-④-|
②口口口 |⑤-⑥-|
①口口口 |⑦-⑧-|
29
⑤口口口 |①-②-|
口⑤⑥⑦ |③-④-|
口⑥⑤① |⑤---|
⑥④③② |⑥-⑦-|
30
④③②① |①-②-|
口口口口 |③-④-|
口口口口
口口口口

口口口⑨
⑤口⑦口
口⑥口⑧ |⑤⑥⑦⑧|
口口口口 |⑨---|
31
口③口口 |①-②-|
口口④② |③-④-|
①口口口
口口口口

口口口口
口口口口
⑪⑦⑧⑫ |⑤⑥⑦⑧|
⑨⑤⑥⑩ |⑨⑩⑪⑫|
32
①口①口 |①---|
④②口③ |②-③-|
口③口口 |----|
口口④口 |④---|
33
口②②口 |--①-|
⑨③①⑥ |----|
⑦⑤④⑧ |②③④⑤|
口①口口 |⑥⑦⑧⑨|
34
口①口口 |----|
口口①口 |①---|
②口口口 |----|
②②口口 |②---|
35
②③口口 |----|
①②③口 |①---|
口①②③ |②---|
口口①② |③---|
36
口口口口 |①---|
口口口② |--②-|
口口口口
①口①②

口口口口
③口口口
口口口口 |----|
③口口口 |③---|
37
口①②① |--①-|
口口②口 |②---|
③③口③ |③---|
口口②口
38
②口口口 |①---|
②①口① |--②-|
口口①口
②口口口

口口口③
口口口③
口口口口 |----|
口口口③ |③---|
39
口②②口 |--①-|
②口口② |----|
①口口① |②---|
口①①口 |----|
40
口口口口 |①-②-|
③④口口 |③-④-|
①②③④
口口①②

⑤口口⑥
口口⑤⑦
⑦口口口 |⑤---|
⑥口口口 |⑥-⑦-|
41
③②①口 |①-②-|
口口口口 |③---|
口口口口
口①②③

口⑦口④
口⑥⑤口
口⑤⑥口 |④-⑤-|
④口⑦口 |⑥-⑦-|
42
①④④④ |①---|
①口④① |②---|
①③口① |③---|
②口口① |④---|
43
口口口⑧ |①---|
⑤⑦⑦口 |②-③④|
①④⑥⑥ |⑤---|
③①口② |⑥-⑦⑧|
44
①口口口 |①---|
④口口口 |②-③④|
口③口口
口口②②

⑦⑤⑤⑥
口⑧口口
⑥口口口 |⑤---|
口口口口 |⑥-⑦⑧|
45
口⑥②口 |①---|
口口口⑥ |②-③④|
⑦⑧①① |⑤---|
③⑤⑦④ |⑥-⑦⑧|
46
⑦口口② |①-②-|
⑧③①口 |③-④-|
口口⑧④ |⑤-⑥-|
口⑤⑦⑥ |⑦-⑧-|
47
口口口② |①---|
口②①口 |②---|
①口口口
口口口口

③口口口
口口④口
口口口③ |③---|
④口口口 |④---|
48
口口口口 |①---|
口口口口 |②---|
口①口②
口口口①

口口口口
口④口口
口⑤⑤口 |③---|
③口④口 |④-⑤-|
49
②④④② |①---|
④口①④ |②---|
口口口口 |③---|
③①口③ |④---|
50
⑤⑦口③ |①-②-|
⑦②口口 |③-④-|
④①①⑥ |⑤-⑥-|
口①①口 |⑦---|
51
⑤口⑦⑦ |①---|
⑧④⑥⑥ |②-③④|
③口①口 |⑤---|
口①口② |⑥-⑦⑧|
52
⑥③⑦⑥ |①---|
口④⑧口 |②-③④|
⑤①口⑤ |⑤---|
口②②口 |⑥-⑦⑧|
53
⑤⑥⑥口 |①---|
口④口口 |②-③④|
③①①⑧ |⑤---|
口⑦⑦② |⑥-⑦⑧|
54
⑤口口口 |①---|
口④①口 |②-③④|
③⑦口口 |⑤---|
⑥口口② |⑥-⑦-|
55
③③③③ |①---|
口口①口 |②---|
口口口口 |③---|
④②②④ |④---|
56
④口口③ |①---|
口②口口 |②---|
口口②口 |③---|
③①口④ |④---|
57
口口④口 |①---|
口④②口 |②---|
④①③口 |③---|
口口口口 |④---|
58
口①口口 |①---|
口口①口 |②---|
口口②①
口口口口

口口口④
③④④③
④口口口 |③---|
口③③口 |④---|
59
⑦②②⑥ |①-②-|
④⑧⑧口 |③-④-|
口口口③ |⑤-⑥-|
①⑤⑤口 |⑦-⑧-|
60
口口口④ |①-②-|
②口口口 |③-④-|
口③③口
口口口①

口⑥⑥口
⑧口口口
口口口⑦ |⑤-⑥-|
⑤口口口 |⑦-⑧-|
61
③口口② |①-②-|
口④④口 |③-④-|
口口口口
口①①口

口口口⑧
⑥口口口
口⑦⑦口 |⑤-⑥-|
口口口⑤ |⑦-⑧-|
62
⑦②②⑥ |①-②-|
④⑧⑧口 |③-④-|
口口口③ |⑤-⑥-|
①⑤⑤口 |⑦-⑧-|
63
口口④口 |①-②-|
②口口口 |③-④-|
口③③口
口口口①

口口口口
⑧⑥⑥口
⑤口口口 |⑤-⑥-|
口⑦口口 |⑦-⑧-|
64
口口口① |①②③④|
口口口② |----|
口口口③ |----|
口口口④ |----|
最終更新:2019年08月22日 03:20