ひかり
KREVA

BASIC

Level: 2
BPM: 127
Notes: 126

1
口口口口 |----|
口口口口 |----|
口口口口 |----|
口口口口 |----|
2
口口口口 |①---|
口①①口 |----|
口口口口 |----|
口口口口 |----|
3
口口口口 |①---|
口口口口 |----|
口①①口 |----|
口口口口 |----|
4
口口口口 |①---|
①口口① |----|
②口口② |②---|
口口口口 |----|
5
口口口口 |①---|
口口口口 |----|
口口口口 |----|
①口口① |----|
6
口口口口 |①---|
①②口口 |----|
口口口口 |②---|
口口口口 |----|
7
口口口口 |①---|
口口①② |----|
口口口口 |②---|
口口口口 |----|
8
口口口口 |①---|
口口口口 |----|
口②②口 |②---|
口①①口 |----|
9
口②②口 |①---|
口①①口 |----|
口口口口 |②---|
口口口口 |----|
10
①口口① |①---|
口口口口 |----|
口口口口 |----|
口口口口 |----|
11
口口口口 |①---|
口①①口 |----|
口口口口 |----|
口口口口 |----|
12
口口口口 |①---|
①口口① |----|
口口口口 |----|
口口口口 |----|
13
口口口口 |①---|
口口口口 |----|
口①①口 |----|
口口口口 |----|
14
口口口口 |①---|
口口口口 |----|
①口口① |----|
口口口口 |----|
15
口口口口 |①---|
口口口口 |----|
口口口口 |----|
口①①口 |----|
16
①口口① |①---|
口口口口 |----|
口口口口 |----|
口口口口 |----|
17
口口口口 |①---|
口①①口 |----|
口口口口 |----|
口口口口 |----|
18
口口口口 |①---|
口①口口 |----|
口口口口 |----|
口口口口 |----|
19
口口口口 |①---|
口口①口 |----|
口口口口 |----|
口口口口 |----|
20
口口口口 |①---|
口口口口 |----|
口口①口 |----|
口口口口 |----|
21
口口口口 |①---|
口口口口 |----|
口①口口 |----|
口口口口 |----|
22
口口口口 |①---|
口①口口 |----|
口口口口 |----|
口口口口 |----|
23
口口口口 |①---|
口口①口 |----|
口口口口 |----|
口口口口 |----|
24
口口口口 |①---|
口口口口 |----|
口口①口 |----|
口口口口 |----|
25
口口口口 |①---|
口口口口 |----|
口①口口 |----|
口口口口 |----|
26
口口口口 |----|
口①①口 |----|
口口口口 |①---|
口口口口 |----|
27
口口口口 |----|
口口口口 |----|
口口口口 |----|
口口口口 |----|
28
②①①② |①---|
口口口口 |----|
口口口口 |②---|
口口口口 |----|
29
口①①口 |①---|
②口口② |----|
口口口口 |②---|
口口口口 |----|
30
口口口口 |①---|
口①①口 |----|
口②②口 |②---|
口口口口 |----|
31
口口口口 |----|
口口口口 |----|
口口口口 |----|
口口口口 |----|
32
①口口① |①---|
②口口② |----|
口口口口 |②---|
口口口口 |----|
33
口口口口 |①---|
口口口口 |----|
①口口① |②---|
②口口② |----|
34
②口口口 |①---|
口口口口 |----|
口①①口 |②---|
口口口口 |----|
35
口①口口 |①---|
口口口口 |----|
口口口口 |----|
口口口口 |----|
36
口口②① |①---|
口口口口 |----|
口口口口 |②---|
口口口口 |----|
37
口口口口 |①---|
口①①口 |----|
口口口口 |----|
口口口口 |----|
38
口口口口 |----|
口口口口 |----|
口①①口 |①---|
口口口口 |----|
39
口②②口 |①---|
口①①口 |----|
口口口口 |②---|
口口口口 |----|
40
①口口① |①---|
②口口② |----|
口口口口 |②---|
口口口口 |----|
41
口口口口 |①---|
口口口口 |----|
①口口① |②---|
②口口② |----|
42
口②②口 |①---|
口口口口 |----|
口①①口 |②---|
口口口口 |----|
43
口口口口 |①---|
口②②口 |----|
口口口口 |②---|
口①①口 |----|
44
口口口口 |①---|
①②口口 |----|
口口口口 |②---|
口口口口 |----|
45
口口口口 |①---|
口口①② |----|
口口口口 |②---|
口口口口 |----|
46
口②②口 |①---|
口口口口 |----|
口①①口 |②---|
口口口口 |----|
47
口口口口 |①---|
口②②口 |----|
口口口口 |②---|
口①①口 |----|
48
口口口口 |①---|
口口口口 |----|
口口②① |②---|
口口口口 |----|
49
口口口口 |①---|
口口口口 |----|
②①口口 |②---|
口口口口 |----|
50
①口口① |①---|
口口口口 |----|
口口口口 |----|
口口口口 |----|
51
口①①口 |①---|
口口口口 |----|
口口口口 |----|
口口口口 |----|
52
①口口① |①---|
口口口口 |----|
口口口口 |----|
口口口口 |----|
53
②口口② |①---|
口①①口 |----|
口口口口 |②---|
口口口口 |----|
54
口①①口 |①---|
口口口口 |----|
口口口口 |----|
口口口口 |----|
最終更新:2019年08月22日 03:22