ひかり
KREVA

ADVANCED

Level: 5
BPM: 127
Notes: 266

1
口口口口 |----|
口口①口 |----|
口口口口 |----|
口口口口 |①---|
2
口口①口 |①---|
②①口① |②---|
口口①口
口口口口

口口口口
口口⑤⑥
口③④口 |③-④-|
口口口口 |⑤-⑥-|
3
①口口① |①---|
口③④⑤ |②---|
口口口口 |③-④-|
②口口② |⑤---|
4
口口⑥⑦ |--①-|
①②⑤口 |②-③-|
口③④口 |④-⑤-|
口口口口 |⑥-⑦-|
5
口口口口 |①---|
③④口口 |--②-|
②口口② |----|
口①①口 |③-④-|
6
口口口口 |①---|
口口①口 |②---|
口口口②
口口口②

口口口口
口口⑥口
口④⑤口 |③-④-|
口③口口 |⑤-⑥-|
7
②①①② |①---|
③④⑤口 |②---|
口口口口 |③-④-|
口口口口 |⑤---|
8
口④⑤口 |--①-|
口③⑥⑦ |②-③-|
①②口口 |④-⑤-|
口口口口 |⑥-⑦-|
9
②口口② |①---|
⑤口口口 |--②-|
口口口④ |--③-|
③①①口 |④-⑤-|
10
口口口① |①---|
口口口口 |----|
口口口口 |----|
口口口口 |----|
11
口口口口 |①---|
口①①口 |----|
②①①② |----|
口口口口 |--②-|
12
口口口口 |①---|
①口口① |----|
口口口口 |----|
口口口口 |----|
13
口③③口 |①---|
⑤②②⑤ |②-③-|
④口口④ |----|
口①①口 |④-⑤-|
14
①口口① |①---|
口口口口 |----|
口口口口 |----|
口口口口 |----|
15
口口口口 |----|
②口口② |----|
①口口① |----|
口口口口 |①-②-|
16
①口口① |①---|
口口口口 |----|
口口口口 |----|
口口口口 |----|
17
口口口口 |----|
口口口口 |----|
口口口口 |----|
口口口口 |----|
18
口口口口 |①---|
口口口口 |----|
口①①口 |----|
口口口口 |----|
19
口口口口 |①---|
口①①口 |----|
口口口口 |----|
口口口口 |----|
20
口口口口 |①---|
口口口口 |----|
口①①口 |----|
口口口口 |----|
21
口口口口 |①---|
②①①② |--②-|
②①①② |----|
口口口口 |----|
22
口口口口 |①---|
口口口口 |----|
口①①口 |----|
口口口口 |----|
23
口口口口 |①---|
口①①口 |----|
口口口口 |----|
口口口口 |----|
24
口口口口 |①---|
口口口口 |----|
口①①口 |----|
口口口口 |----|
25
口口口口 |①---|
②①①② |--②-|
②①①② |----|
口口口口 |----|
26
口口口口 |①---|
②口口口 |--②-|
口①①口
口口口口

口口口口
口③口口
口口④⑤ |③---|
口口口口 |④-⑤-|
27
口口③口 |----|
口口口口 |----|
①②口口 |--①-|
口口口口 |②-③-|
28
口口⑦口 |--①-|
⑤⑥口口 |②-③-|
④③②① |④-⑤-|
口口口口 |⑥-⑦-|
29
口口口口 |--①-|
口口口口 |②-③-|
④③②① |④---|
口⑤⑤口 |⑤---|
30
口①①口 |①---|
②③口口 |--②-|
口口④⑤ |③---|
口口口口 |④-⑤-|
31
口口③口 |----|
口口口口 |----|
①②口口 |--①-|
口口口口 |②-③-|
32
口口⑦口 |--①-|
⑤⑥口口 |②-③-|
④③②① |④-⑤-|
口口口口 |⑥-⑦-|
33
口口口口 |--①-|
口③③口 |②---|
口口②① |③---|
口④④口 |④---|
34
①口口① |①---|
②口口③ |--②-|
④口口⑤ |③---|
口口口口 |④-⑤-|
35
口口③口 |----|
口口口口 |----|
①②口口 |--①-|
口口口口 |②-③-|
36
口口⑦口 |--①-|
⑤⑥口口 |②-③-|
④③②① |④-⑤-|
口口口口 |⑥-⑦-|
37
口口口口 |----|
口口口口 |----|
口口口口 |----|
口口口口 |----|
38
①口口① |----|
②口口② |①---|
口③④口 |②---|
口口口口 |③-④-|
39
口口口⑥ |--①-|
口③②口 |--②-|
口④⑤口 |③-④-|
①口口① |⑤-⑥-|
40
①口口口 |--①-|
②口口口 |②-③-|
③口口口 |④-⑤-|
④⑤⑥⑦ |⑥-⑦-|
41
口③口② |--①-|
④⑤口① |②---|
口口口口 |③---|
口口口口 |④-⑤-|
42
口口口② |①---|
口口①口 |②---|
口口口②
口口口口

口口口口
③④⑤口
口口口⑥ |③-④-|
口口口口 |⑤-⑥-|
43
口口口口 |①---|
③④⑤口 |②---|
②口①口 |③-④-|
口口口口 |⑤---|
44
口④⑤口 |--①-|
口③⑥⑦ |②-③-|
①②口口 |④-⑤-|
口口口口 |⑥-⑦-|
45
②口口② |①---|
③④口口 |--②-|
口口口口 |----|
口①①口 |③-④-|
46
口口口② |①---|
口口①口 |②---|
口口口②
口口口口

口口口口
③④⑤⑥
口口口口 |③-④-|
口口口口 |⑤-⑥-|
47
口②②口 |①---|
③④⑤口 |②---|
口口口口 |③-④-|
口①①口 |⑤---|
48
口口口口 |--①-|
口⑦⑥⑤ |②-③-|
①②③④ |④-⑤-|
口口口口 |⑥-⑦-|
49
②⑤口② |①---|
①③④口 |--②-|
口口口口 |--③-|
口口口口 |④-⑤-|
50
口口①口 |①---|
口口口口 |----|
口口口口 |----|
口口口口 |----|
51
①口口① |①---|
①②②① |----|
口口口口 |----|
口口口口 |--②-|
52
口口口口 |①---|
口口口口 |----|
口①①口 |----|
口口口口 |----|
53
②口口② |①---|
口口口口 |--②-|
①口口① |----|
口③④口 |③-④-|
54
口口口口 |①---|
口口口口 |----|
口口口口 |----|
口口口① |----|
最終更新:2019年08月22日 03:23