MAMORE!!!
アイドリング!!!

BASIC

Level: 3
BPM: 162
Notes: 189

1
口口口口 |----|
口口口口 |----|
口口口口 |----|
口口口口 |----|
2
①口口② |①---|
口口口口 |----|
口口口口 |②---|
口口口口 |----|
3
口口口口 |①---|
①口口② |----|
口口口口 |②---|
口口口口 |----|
4
口口口口 |①---|
口③③口 |----|
①口口② |②---|
口口口口 |--③-|
5
口口口口 |----|
口口口口 |----|
①口口口 |①---|
口口口口 |----|
6
口口口口 |①---|
口①口口 |----|
口口口② |②---|
口口口口 |----|
7
口口口口 |①---|
口口①口 |----|
口口口口 |----|
口口口口 |----|
8
口口口口 |①---|
口口口口 |②---|
①②③口 |③---|
口口口口 |----|
9
口口口口 |①---|
口口①① |----|
②口口口 |②---|
口口口口 |----|
10
口口口口 |①---|
口①口口 |----|
口口口② |②---|
口口口口 |----|
11
口口口口 |①---|
口口①口 |----|
口口口口 |----|
口口口口 |----|
12
口口口口 |①---|
口③②① |②---|
口口口口 |③---|
口口口口 |----|
13
口口口口 |①---|
②口口口 |----|
①①口口 |②---|
口口口口 |----|
14
口口口口 |①---|
口口口② |----|
口①口口 |②---|
口口口口 |----|
15
口口口口 |①---|
口口口口 |----|
口口①口 |----|
口口口口 |----|
16
口口口口 |①---|
口口口口 |②---|
①②③口 |③---|
口口口口 |----|
17
口口口口 |①---|
口④口① |②---|
口③②口 |③---|
口口口口 |④---|
18
②口口口 |①---|
①口口口 |----|
口口口口 |②---|
口口口口 |----|
19
口口口口 |①---|
口①③口 |----|
口口②口 |②---|
口口口口 |③---|
20
口口口① |①---|
口口口口 |----|
口口口口 |----|
口口口口 |----|
21
口口口口 |①---|
①口口① |----|
口口口口 |----|
口口口口 |----|
22
口口口口 |①---|
口②口口 |----|
口口口口 |②---|
口①口口 |----|
23
口口②① |①---|
④③口口 |②---|
口口口口 |③---|
口口口口 |④---|
24
口口①口 |①---|
口口口口 |----|
口口②口 |②---|
口口口口 |----|
25
口口口口 |①---|
口口口口 |②---|
①②口口 |③---|
口口③④ |④---|
26
口口口口 |①---|
口②②口 |----|
口①①口 |②---|
口口口口 |----|
27
口口口口 |①---|
①口口① |----|
口口口口 |----|
口口口口 |----|
28
口口口口 |①---|
口口口口 |----|
口口②② |②---|
口①①口 |----|
29
口口口口 |①---|
①①口口 |----|
口口口口 |----|
口口口口 |----|
30
①口口口 |①---|
口口口口 |----|
口口②口 |②---|
口口口口 |----|
31
口口口口 |①---|
口②②口 |----|
①口口口 |②---|
口口口口 |----|
32
口口口口 |①---|
口口口口 |----|
②②口口 |②---|
口①①口 |----|
33
口口口口 |①---|
口口①① |----|
口口口口 |----|
口口口口 |----|
34
口口口① |①---|
口口口口 |----|
口②口口 |②---|
口口口口 |----|
35
口口口口 |①---|
口②②口 |----|
口口口① |②---|
口口口口 |----|
36
口口口口 |①---|
口口口口 |----|
①②口口 |②---|
口口口口 |----|
37
口口口口 |①---|
口口①① |----|
口③口口 |②---|
②口口口 |③---|
38
口口口口 |①---|
口口口② |----|
口口口① |②---|
口口口口 |----|
39
口口口口 |①---|
①①口口 |----|
口口口口 |----|
口口口口 |----|
40
口口口口 |①---|
①口②口 |----|
口口口口 |②---|
口口口口 |----|
41
口口口口 |①---|
①②口口 |----|
口口口口 |②---|
口口口口 |----|
42
口口口口 |①---|
口②②① |----|
口口口口 |②---|
口口口口 |----|
43
口口口口 |----|
口口口口 |----|
①口口口 |----|
口口口口 |①---|
44
口口口口 |①---|
口①口② |----|
口口口口 |②---|
口口口口 |----|
45
口口口口 |①---|
口①口② |----|
口口口口 |②---|
口口口口 |----|
46
口口口口 |①---|
口口口口 |----|
口②②口 |②---|
口口口① |----|
47
口口口口 |----|
口口口口 |----|
口口口口 |----|
口口口口 |----|
48
口口口口 |①---|
①口②口 |----|
口口口口 |②---|
口口口口 |----|
49
口口口口 |①---|
①②口口 |----|
口口口口 |②---|
口口口口 |----|
50
口口口口 |①---|
口口②① |----|
口口口口 |②---|
口口口口 |----|
51
口口口口 |①---|
口②②口 |----|
口口①① |②---|
口口口口 |----|
52
①①口口 |①---|
口口口口 |----|
口口口口 |----|
口口口口 |----|
53
口口口口 |①---|
口口②口 |----|
口①口口 |②---|
口口口口 |----|
54
口①①口 |①---|
口②②口 |--②-|
口③③口 |----|
口口口口 |③---|
55
口口口口 |--①-|
口口口口 |----|
②口口口 |②---|
口①①口 |----|
56
口口口口 |①---|
口①口口 |----|
口口口② |②---|
口口口口 |----|
57
口口口口 |①---|
口口①口 |----|
口口口口 |----|
口口口口 |----|
58
口口口口 |①---|
口口口口 |②---|
①②③口 |③---|
口口口口 |----|
59
口口口口 |①---|
口口①① |----|
②口口口 |②---|
口口口口 |----|
60
口口口口 |①---|
口①口口 |----|
口口口② |②---|
口口口口 |----|
61
口口口口 |①---|
口口①口 |----|
口口口口 |----|
口口口口 |----|
62
口口口口 |①---|
口③②① |②---|
口口口口 |③---|
口口口口 |----|
63
口口口口 |①---|
②口口口 |----|
①①口口 |②---|
口口口口 |----|
64
口口口口 |①---|
口口口② |----|
口①口口 |②---|
口口口口 |----|
65
口口口口 |①---|
口口口口 |----|
口口①口 |----|
口口口口 |----|
66
口口口口 |①---|
口口口口 |②---|
①②③口 |③---|
口口口口 |----|
67
口口口口 |①---|
口④口① |②---|
口③②口 |③---|
口口口口 |④---|
68
②口③口 |①---|
①口口口 |----|
口口口口 |②---|
口口口口 |③---|
69
口口口口 |①---|
口①④② |②---|
口③口口 |③---|
口口口口 |④---|
70
口口口① |①---|
口口口口 |----|
口口口口 |----|
口口口口 |----|
71
口口口口 |①---|
口①①口 |----|
口口口口 |----|
口口口口 |----|
72
口口①口 |①---|
口口口口 |----|
口口②口 |②---|
口口口口 |----|
73
口口口口 |①---|
口口口口 |②---|
①②口口 |③---|
口口③④ |④---|
74
口口口口 |①---|
口②②口 |----|
口①①口 |②---|
口口口口 |----|
75
口①①口 |①---|
口口口口 |----|
口口口口 |----|
口口口口 |----|
76
口口①① |①---|
②②口口 |----|
口口口口 |②---|
口口口口 |----|
77
口口口口 |①---|
口口口口 |----|
口①①口 |----|
口口口口 |----|
最終更新:2019年08月22日 03:24