MAMORE!!!
アイドリング!!!

ADVANCED

Level: 6
BPM: 162
Notes: 456

1
口口口口 |----|
口口口口 |----|
口口口口 |----|
口口口口 |----|
2
①口②口 |①-②-|
口③口④ |③-④-|
⑤口⑥口 |⑤-⑥-|
口⑦口⑧ |⑦-⑧-|
3
①口②口 |①-②-|
口③口④ |③-④-|
⑤口⑥口 |⑤-⑥-|
口⑦口⑧ |⑦-⑧-|
4
①口②⑧ |①-②-|
口③口④ |③-④-|
⑤口⑥⑧ |⑤-⑥-|
口⑦口口 |⑦-⑧-|
5
口③④⑤ |--①-|
①口②⑥ |②-③-|
口口⑦口 |④-⑤-|
①口②口 |⑥-⑦-|
6
口口口口 |--①-|
①①口口 |--②-|
口口口口
口口②口

口口口口
口⑥口口
⑤口口口 |③-④-|
④③口口 |⑤-⑥-|
7
口口②② |--①-|
口口口口 |--②-|
口口①① |----|
口口口③ |--③-|
8
口⑥⑥口 |--①-|
③口①口 |②-③-|
口②⑤⑤ |④-⑤-|
④④口口 |--⑥-|
9
口口口口 |----|
口口口口 |--①-|
④口⑤口 |②-③-|
③②①口 |④-⑤-|
10
口②口口 |--①-|
①①口口 |--②-|
口口口口
口口口口

口口③④
口⑥口⑤
口口口口 |③-④-|
口口口口 |⑤-⑥-|
11
口口②② |--①-|
口口口口 |--②-|
口口①① |----|
口口口③ |--③-|
12
口⑥⑥口 |--①-|
③口①口 |②-③-|
口②⑤⑤ |④-⑤-|
④④口口 |--⑥-|
13
口口口口 |----|
口口口口 |--①-|
④口⑤口 |②-③-|
③②①口 |④-⑤-|
14
口②口口 |--①-|
①①口口 |--②-|
口口口口
口口口口

口口③④
口⑥口⑤
口口口口 |③-④-|
口口口口 |⑤-⑥-|
15
口口②② |--①-|
口口口口 |--②-|
口口①① |----|
口口口③ |--③-|
16
口④⑤口 |--①-|
③口①口 |②-③-|
口②口口 |④-⑤-|
⑥⑥口口 |--⑥-|
17
口口③③ |--①-|
①①②② |②-③-|
口口口口
口口口口

口口口口
口⑥口口
口口⑤口 |--④-|
口口口④ |⑤-⑥-|
18
①口口口 |①---|
②口③口 |----|
口口口口 |②---|
口口口口 |③---|
19
口口口口 |①---|
④④口口 |②---|
口①③③ |③---|
口口②口 |④---|
20
口口①① |①---|
口口口口 |----|
口口口口
口口口口

③口口③
②口口②
口口口口 |----|
口口口口 |②-③-|
21
口口口口 |----|
口口口口 |----|
口口口口 |----|
口口口口 |----|
22
⑤④⑤口 |①---|
口③口口 |②---|
口口②口 |③-④-|
口①口口 |--⑤-|
23
口口口口 |--①-|
①口①口 |--②-|
口②口② |--③-|
口③口③ |----|
24
口⑤④⑤ |①---|
口口③口 |②---|
口②口口 |③-④-|
口口①口 |--⑤-|
25
口口口口 |--①-|
口①口① |--②-|
②口②口 |--③-|
③口③口 |----|
26
①①①口 |①---|
口②②② |----|
口口口口 |②---|
③③③口 |--③-|
27
口口口口 |----|
①口③口 |①---|
口②口口 |②---|
口口口口 |③---|
28
口口口口 |①---|
口口口口 |----|
②③②口 |②---|
①口①口 |--③-|
29
④口口口 |①---|
①③①口 |----|
口口②口 |--②-|
口口口口 |③-④-|
30
口口口口 |--①-|
⑤⑤③口 |②-③-|
①②口④ |④---|
口口口口 |⑤---|
31
口口口口 |①---|
③口口③ |--②-|
②①①② |③---|
口口口口 |----|
32
口口口口 |①---|
口口口口 |----|
口②③② |②---|
口①口① |--③-|
33
口口口④ |①---|
口①③① |----|
口②口口 |--②-|
口口口口 |③-④-|
34
口口口口 |--①-|
⑤③口口 |②-③-|
④口②① |④---|
口口口口 |⑤---|
35
①①口口 |①---|
③口口③ |--②-|
②口口② |③---|
口口口口 |----|
36
③⑤⑥⑦ |①-②-|
口②口④ |③-④-|
口口①口 |--⑤-|
口口口口 |⑥-⑦-|
37
口口⑤口 |--①-|
口④②② |--②-|
③口①① |--③-|
口口口口 |④-⑤-|
38
口口口口 |①-②-|
④口②口 |③-④-|
口③口①
口口口口

口⑤口口
口口口口
口口⑥⑥ |--⑤-|
口口⑦⑦ |⑥-⑦-|
39
③口口口 |----|
口口口② |----|
①口口口 |--①-|
口口口口 |②-③-|
40
口口口③ |①---|
⑤口②口 |②---|
口①④口 |③---|
口口口口 |④-⑤-|
41
口口口③ |--①-|
口口②口 |--②-|
④口④口 |③---|
口①口口 |④---|
42
③③口口 |①---|
口口②② |--②-|
口①口① |③---|
④口口口 |--④-|
43
口口口口 |--①-|
口口口口 |--②-|
口①②口 |③---|
口口③④ |④---|
44
⑤口口② |①---|
口口口③ |②---|
口口口④ |③---|
①①口口 |④-⑤-|
45
口口③口 |--①-|
④①口口 |--②-|
②口口口 |③---|
口口口口 |④---|
46
口口口口 |①---|
口口②① |--②-|
口③③口 |③---|
④口口口 |④---|
47
⑥口口口 |①---|
口口口⑤ |②-③-|
④口③③ |--④-|
口②①口 |⑤-⑥-|
48
口口口③ |①---|
⑤口②口 |②---|
口①④口 |③---|
口口口口 |④-⑤-|
49
口口口③ |--①-|
口口②口 |--②-|
④口④口 |③---|
口①口口 |④---|
50
③③口口 |①---|
口口②② |--②-|
口①口① |③---|
口口口口 |----|
51
口口口口 |①---|
口②口口 |----|
口②①口 |②---|
口口①口 |----|
52
口口①口 |①---|
口口①口 |----|
口口口口 |----|
口口口口 |----|
53
口口口口 |①---|
口②口口 |----|
口口口口 |②---|
口口口① |----|
54
口口口口 |①---|
②②①① |--②-|
①①②②
口口口口

口口③口
口口③口
口③口口 |----|
口③口口 |③---|
55
②①口口 |--①-|
口①口口 |--②-|
口口①口
口口①口

口口③④
口口口⑤
口口⑥口 |③-④-|
口口口口 |⑤-⑥-|
56
口口口口 |--①-|
①①口口 |--②-|
口口口口
口口②口

口口口口
口⑥口口
⑤口口口 |③-④-|
④③口口 |⑤-⑥-|
57
口口②② |--①-|
口口口口 |--②-|
口口①① |----|
口口口③ |--③-|
58
口⑥⑥口 |--①-|
③口①口 |②-③-|
口②⑤⑤ |④-⑤-|
④④口口 |--⑥-|
59
口口口口 |----|
口口口口 |--①-|
④口⑤口 |②-③-|
③②①口 |④-⑤-|
60
口②口口 |--①-|
①①口口 |--②-|
口口口口
口口口口

口口③④
口⑥口⑤
口口口口 |③-④-|
口口口口 |⑤-⑥-|
61
口口②② |--①-|
口口口口 |--②-|
口口①① |----|
口口口③ |--③-|
62
口⑥⑥口 |--①-|
③口①口 |②-③-|
口②⑤⑤ |④-⑤-|
④④口口 |--⑥-|
63
口口口口 |----|
口口口口 |--①-|
④口⑤口 |②-③-|
③②①口 |④-⑤-|
64
口②口口 |--①-|
①①口口 |--②-|
口口口口
口口口口

口口③④
口⑥口⑤
口口口口 |③-④-|
口口口口 |⑤-⑥-|
65
口口②② |--①-|
口口口口 |--②-|
口口①① |----|
口口口③ |--③-|
66
口④⑤口 |--①-|
③口①口 |②-③-|
口②口口 |④-⑤-|
⑥⑥口口 |--⑥-|
67
口口③③ |--①-|
①①②② |②-③-|
口口口口
口口口口

口口口口
口⑥口口
口口⑤口 |--④-|
口口口④ |⑤-⑥-|
68
①口口口 |①---|
②口③口 |----|
口口口口 |②---|
口口口口 |③---|
69
口口口口 |①---|
④④口口 |②---|
口①③③ |③---|
口口②口 |④---|
70
口口①① |①---|
口口口口 |----|
口口口口
口口口口

③口口③
②口口②
口口口口 |----|
口口口口 |②-③-|
71
口口口口 |----|
口口口口 |----|
口口口口 |----|
①口口口 |--①-|
72
口⑤④⑤ |①---|
口口③口 |②---|
口②口口 |③-④-|
口口①口 |--⑤-|
73
口口口口 |--①-|
口①口① |--②-|
②口②口 |--③-|
③口③口 |----|
74
①①①口 |①---|
口②②② |----|
口口口口 |②---|
③③③口 |--③-|
75
口口③口 |----|
口②口口 |①---|
①口口口 |②---|
口口口口 |③---|
76
②②口口 |①---|
②口口口 |--②-|
口口口①
口口①①

口口口口
口口口口
口④④口 |----|
口③③口 |③-④-|
77
②口口② |--①-|
①口口① |②---|
口口口口 |----|
口口口口 |----|
最終更新:2019年08月22日 03:25