MAMORE!!!
アイドリング!!!

EXTREME

Level: 8
BPM: 162
Notes: 556

1
口口口口 |----|
口口口口 |----|
口口口口 |----|
口口口口 |----|
2
①②口③ |①②③-|
④⑤口⑥ |④⑤⑥-|
⑦⑧口⑨ |⑦⑧⑨-|
⑩⑪口⑫ |⑩⑪⑫-|
3
①②口③ |①②③-|
④⑤口⑥ |④⑤⑥-|
⑦⑧口⑨ |⑦⑧⑨-|
⑩⑪口⑫ |⑩⑪⑫-|
4
①②口③ |①②③-|
④⑤口⑥ |④⑤⑥-|
⑩口⑦⑩ |⑦-⑧-|
⑩⑨⑧⑩ |⑨-⑩-|
5
①⑥⑤① |--①-|
①④②① |②-③-|
⑦②口⑦ |④-⑤-|
口口③口 |⑥-⑦-|
6
口口口口 |--①-|
①口口① |--②-|
口口②口
口口口口

口口④口
⑥③口⑥
⑤口口⑤ |③-④-|
口口口口 |⑤-⑥-|
7
①①②② |--①-|
口口口口 |--②-|
口口口③ |----|
口口口口 |--③-|
8
⑤⑥③⑤ |--①-|
④②⑥④ |②-③-|
口⑥①口 |④-⑤-|
口口口口 |--⑥-|
9
口④③口 |----|
口②口口 |--①-|
⑤口①⑤ |②-③-|
口口口口 |④-⑤-|
10
口口⑤口 |--①-|
①④口① |--②-|
⑥口③⑥ |③-④-|
口②口口 |⑤-⑥-|
11
②口口② |--①-|
①口口① |--②-|
口口口③ |----|
口口口口 |--③-|
12
口①③② |--①-|
口口口口 |②-③-|
口口口口
口口口口

口⑥口口
⑥口⑥⑤
④⑥口口 |④-⑤-|
口口口口 |--⑥-|
13
口⑥⑤口 |--①-|
口④口口 |②-③-|
⑦口③⑦ |④-⑤-|
②①口口 |⑥-⑦-|
14
口口口口 |--①-|
①口口① |--②-|
口口②口
口口口口

口口④口
⑥③口⑥
⑤口口⑤ |③-④-|
口口口口 |⑤-⑥-|
15
①①②② |--①-|
口口口口 |--②-|
口口口③ |----|
口口口口 |--③-|
16
⑤口口口 |--①-|
口④②① |②-③-|
⑥口③口 |④-⑤-|
口口口口 |--⑥-|
17
口③③① |--①-|
④⑥②② |②-③-|
口口⑤口 |--④-|
口口口口 |⑤-⑥-|
18
口③口① |①---|
④口④口 |②---|
口口口口 |③---|
②口②口 |④---|
19
④口口④ |①---|
③口口③ |②---|
口①②② |③---|
口口口口 |④---|
20
⑤①①口 |①---|
⑤②②口 |②---|
口③③④ |③---|
口口口④ |④-⑤-|
21
口口口口 |----|
③口口口 |----|
口口②口 |①-②-|
口口口① |③---|
22
①①①口 |①---|
口②口口 |②---|
口口口口
口口口口

⑤口⑤口
④口口口
口口③口 |③-④-|
口口口口 |--⑤-|
23
口口口口 |--①-|
口①口① |--②-|
②口②口
口口口口

口口口口
口④口口
口口口口 |--③-|
口③口③ |--④-|
24
①⑤口⑤ |①---|
口口②口 |②---|
④口口口 |③-④-|
口口③口 |--⑤-|
25
口口口口 |--①-|
①口①④ |--②-|
口②口② |--③-|
③口③口 |--④-|
26
口②①口 |①---|
②②②口 |----|
口③③③ |②---|
口口③口 |--③-|
27
①②③口 |--①-|
⑦⑥⑤④ |②-③-|
口口口口 |④-⑤-|
口口口口 |⑥-⑦-|
28
口口口口 |①---|
口②口口 |----|
②①②口 |②---|
①③①口 |--③-|
29
③①口口 |①---|
①②①④ |----|
口口口口 |--②-|
口口口口 |③-④-|
30
口口口口 |①-②-|
口口⑤⑥ |③-④-|
②③④口 |⑤---|
口口①口 |⑥---|
31
口口口口 |①---|
①③口③ |--②-|
②口口② |③---|
口口口口 |----|
32
口口口口 |①---|
口口②口 |----|
口②①② |②---|
口①③① |--③-|
33
口口①④ |①---|
口①③① |----|
口②口口 |--②-|
口口口口 |③-④-|
34
口③②口 |①-②-|
④口口⑥ |③-④-|
口口⑤口 |⑤---|
口口①口 |⑥---|
35
①①口② |①---|
口口口口 |--②-|
③③口② |③---|
口口口口 |----|
36
③⑤⑥⑦ |①-②-|
口②口④ |③-④-|
口口①口 |--⑤-|
口口口口 |⑥-⑦-|
37
口口口口 |--①-|
口口①① |--②-|
口②口②
口口口口

口口口口
口口口⑤
口口③口 |--③-|
口口口④ |④-⑤-|
38
口口③口 |①-②-|
⑤②口口 |③-④-|
①⑥⑥④ |--⑤-|
⑦口⑦⑦ |⑥-⑦-|
39
③口口口 |----|
②口口口 |----|
①口口口 |--①-|
口口口口 |②-③-|
40
口口口③ |①---|
④口②口 |②---|
口①口⑤ |③---|
口口口口 |④-⑤-|
41
口口口② |--①-|
③口①口 |--②-|
口口口口 |③---|
④口④口 |④---|
42
口②③口 |①---|
②口口③ |--②-|
口①口① |③---|
口④口口 |--④-|
43
口口口口 |--①-|
口口④口 |--②-|
口③口① |③---|
②口口口 |④---|
44
口口①① |①---|
⑤口③① |②---|
②④口口 |③---|
口口口口 |④-⑤-|
45
口①口② |--①-|
口③口③ |--②-|
④口④口 |③---|
口口口口 |④---|
46
口口口口 |①---|
口口②② |--②-|
口口③③ |③---|
④①口① |④---|
47
⑥③口③ |①---|
⑤口③口 |②-③-|
④口②口 |--④-|
口①口口 |⑤-⑥-|
48
口口口③ |①---|
④口②口 |②---|
口①口⑤ |③---|
口口口口 |④-⑤-|
49
口口口② |--①-|
③口①④ |--②-|
口口口口 |③---|
④口④口 |④---|
50
口②③口 |①---|
②口口③ |--②-|
口①口① |③---|
口口口口 |----|
51
口②②① |①---|
口口口口 |----|
②①①口 |②---|
口口口口 |----|
52
口口口口 |①---|
①①口口 |----|
口口①① |----|
口口口口 |----|
53
口口口口 |①---|
口口②② |----|
①①口② |②---|
口①口口 |----|
54
③③①① |①-②-|
口②口口 |--③-|
口口②口
①①③③

口口口⑤
口口⑥⑤
④⑥口④ |④---|
⑤⑤口口 |⑤-⑥-|
55
①⑥⑤④ |--①-|
①③口口 |②-③-|
⑦口②⑦ |④-⑤-|
口口①① |⑥-⑦-|
56
口口口口 |--①-|
①口口① |--②-|
口口②口
口口口口

口口④口
⑥③口⑥
⑤口口⑤ |③-④-|
口口口口 |⑤-⑥-|
57
①①②② |--①-|
口口口口 |--②-|
口口口③ |----|
口口口口 |--③-|
58
⑤⑥③⑤ |--①-|
④②⑥④ |②-③-|
口⑥①口 |④-⑤-|
口口口口 |--⑥-|
59
口④③口 |----|
口②口口 |--①-|
⑤口①⑤ |②-③-|
口口口口 |④-⑤-|
60
口口⑤口 |--①-|
①④口① |--②-|
⑥口③⑥ |③-④-|
口②口口 |⑤-⑥-|
61
②口口② |--①-|
①口口① |--②-|
口口口③ |----|
口口口口 |--③-|
62
口①③② |--①-|
口口口口 |②-③-|
口口口口
口口口口

口⑥口口
⑥口⑥⑤
④⑥口口 |④-⑤-|
口口口口 |--⑥-|
63
口⑥⑤口 |--①-|
口④口口 |②-③-|
⑦口③⑦ |④-⑤-|
②①口口 |⑥-⑦-|
64
口口口口 |--①-|
①口口① |--②-|
口口②口
口口口口

口口④口
⑥③口⑥
⑤口口⑤ |③-④-|
口口口口 |⑤-⑥-|
65
①①②② |--①-|
口口口口 |--②-|
口口口③ |----|
口口口口 |--③-|
66
⑤口口口 |--①-|
口④②① |②-③-|
⑥口③口 |④-⑤-|
口口口口 |--⑥-|
67
口③③① |--①-|
④⑥②② |②-③-|
口口⑤口 |--④-|
口口口口 |⑤-⑥-|
68
口③口① |①---|
口口④口 |②---|
口口口口 |③---|
②口②口 |④---|
69
④口口④ |①---|
③口口③ |②---|
口①②② |③---|
口口口口 |④---|
70
口口口口 |①---|
口①①口 |----|
①口口①
口口口口

口③口口
③口③口
口②口口 |----|
②口②口 |②-③-|
71
口口口口 |--①-|
口①口① |--②-|
②口②口 |--③-|
④③口③ |--④-|
72
①⑤口⑤ |①---|
口口②口 |②---|
④口口口 |③-④-|
口口③口 |--⑤-|
73
口口口口 |--①-|
①口①④ |--②-|
口②口② |--③-|
③口③口 |--④-|
74
口口①口 |①---|
②③③口 |②---|
⑤⑤口④ |③---|
口口口口 |④-⑤-|
75
①②③④ |--①-|
⑦⑥⑤口 |②-③-|
口口口口 |④-⑤-|
口口口口 |⑥-⑦-|
76
②口③③ |①-②-|
口口口② |--③-|
口口口①
①口口口

口口口口
口口口⑥
⑥⑤⑤口 |④---|
口口④④ |⑤-⑥-|
77
②①①口 |--①-|
②口口口 |②---|
口口口② |----|
口口口② |----|
最終更新:2019年08月22日 03:26